The Wedding Guest (2018) Hindi 720p HDRip x264 AAC 5.1 Esub - Mov...

  • Category Movies
  • Type Bollywood
  • Language Hindi
  • Total size 895.8 MB
  • Uploaded By uploader6969
  • Downloads 1978
  • Last checked 11 minutes ago
  • Date uploaded 19 hours ago
  • Seeders 59
  • Leechers 66

The Wedding Guest

DramaThriller

Jay is a man with a secret who travels from Britain to Pakistan to attend a wedding—armed with duct tape, a shotgun, and a plan to kidnap the bride-to-be. Jay and his hostage end up on the run across the border and through the railway stations, back alleys, and black markets of New Delhi.

Infohash : ECDD458C38C1A6AA183DBF421973C45FF354363B

www.MoviePirate.club


Telegram Link



****************************
_____ _ _ 
|_ _|___ | || | _ _ 
| | / _ \| || || | | |
| || __/| || || |_| |
|_| \___||_||_| \__, |
|___/ 
****************************
Team Telly Proudly Presents
****************************
------------------
|Media Info|
------------------
Complete name                            : J:\The Wedding Guest (2018) Hindi 720p HDRip x264 AAC 5.1 Esub - MoviePirate [Telly] (1).mkv
Format                                   : Matroska
Format version                           : Version 4
File size                                : 896 MiB
Duration                                 : 1 h 36 min
Overall bit rate                         : 1 300 kb/s
Movie name                               : MoviePirate.Club
Encoded date                             : UTC 2019-08-19 09:03:03
Writing application                      : mkvmerge v35.0.0 ('All The Love In The World') 64-bit
Writing library                          : libebml v1.3.9 + libmatroska v1.5.2 / Lavf58.20.100
Video
ID                                       : 1
Format                                   : AVC
Format/Info                              : Advanced Video Codec
Format profile                           : [email protected]
Format settings                          : CABAC / 5 Ref Frames
Format settings, CABAC                   : Yes
Format settings, Reference frames        : 5 frames
Codec ID                                 : V_MPEG4/ISO/AVC
Duration                                 : 1 h 36 min
Bit rate                                 : 1 112 kb/s
Width                                    : 1 280 pixels
Height                                   : 532 pixels
Display aspect ratio                     : 2.40:1
Frame rate mode                          : Constant
Frame rate                               : 23.976 (24000/1001) FPS
Color space                              : YUV
Chroma subsampling                       : 4:2:0
Bit depth                                : 8 bits
Scan type                                : Progressive
Bits/(Pixel*Frame)                       : 0.068
Stream size                              : 762 MiB (85%)
Title                                    : MoviePirate.Club
Writing library                          : x264 core 157 r2935 545de2f
Encoding settings                        : cabac=1 / ref=5 / deblock=1:0:0 / analyse=0x1:0x111 / me=hex / subme=8 / psy=1 / psy_rd=1.00:0.00 / mixed_ref=1 / me_range=16 / chroma_me=1 / trellis=2 / 8x8dct=0 / cqm=0 / deadzone=21,11 / fast_pskip=1 / chroma_qp_offset=-2 / threads=17 / lookahead_threads=2 / sliced_threads=0 / nr=0 / decimate=1 / interlaced=0 / bluray_compat=0 / constrained_intra=0 / bframes=3 / b_pyramid=2 / b_adapt=1 / b_bias=0 / direct=3 / weightb=1 / open_gop=0 / weightp=2 / keyint=240 / keyint_min=24 / scenecut=40 / intra_refresh=0 / rc_lookahead=50 / rc=abr / mbtree=1 / bitrate=1112 / ratetol=1.0 / qcomp=0.60 / qpmin=0 / qpmax=69 / qpstep=4 / vbv_maxrate=50000 / vbv_bufsize=62500 / nal_hrd=none / filler=0 / ip_ratio=1.40 / aq=1:1.00
Default                                  : Yes
Forced                                   : No
Color range                              : Limited
Color primaries                          : BT.709
Transfer characteristics                 : BT.709
Matrix coefficients                      : BT.709
Audio
ID                                       : 2
Format                                   : AAC LC
Format/Info                              : Advanced Audio Codec Low Complexity
Codec ID                                 : A_AAC-2
Duration                                 : 1 h 36 min
Bit rate                                 : 192 kb/s
Channel(s)                               : 6 channels
Channel layout                           : C L R Ls Rs LFE
Sampling rate                            : 48.0 kHz
Frame rate                               : 46.875 FPS (1024 SPF)
Compression mode                         : Lossy
Delay relative to video                  : -21 ms
Stream size                              : 132 MiB (15%)
Title                                    : MoviePirate.Club
Language                                 : Hindi
Default                                  : Yes
Forced                                   : No
Text
ID                                       : 3
Format                                   : ASS
Codec ID                                 : S_TEXT/ASS
Codec ID/Info                            : Advanced Sub Station Alpha
Duration                                 : 1 h 28 min
Bit rate                                 : 55 b/s
Count of elements                        : 754
Compression mode                         : Lossless
Stream size                              : 35.9 KiB (0%)
Title                                    : MoviePirate.Club
Language                                 : English
Default                                  : No
Forced                                   : No
****************************
Tellytorrent.net 
Team Telly Official Site
****************************
www.MoviePirate.club
Enjoy Exclusives Content only on TellyTorrent.net









Files:

  • The Wedding Guest (2018) Hindi 720p HDRip x264 AAC 5.1 Esub - MoviePirate [Telly] (1).mkv (895.8 MB)

There are currently no comments. Feel free to leave one :)

Code:

  • udp://tracker.opentrackr.org:1337/announce
  • http://tracker1.itzmx.com:8080/announce
  • http://tracker3.itzmx.com:6961/announce
  • udp://open.demonii.si:1337/announce
  • udp://tracker.tiny-vps.com:6969/announce
  • udp://thetracker.org:80/announce
  • udp://open.stealth.si:80/announce
  • udp://bt.firebit.co.uk:6969/announce
  • udp://tracker.leechers-paradise.org:6969/announce
  • udp://9.rarbg.to:2710/announce
  • udp://9.rarbg.me:2710/announce
  • udp://9.rarbg.com:2710/announce
  • udp://9.rarbg.me:2730/announce
  • udp://tracker.internetwarriors.net:1337/announce
  • http://tracker.electro-torrent.pl:80/announce
/08/e7/ff/08e7ffd6a1ad8052c7c702273b643766.js'>