Destroyer.2019.DVDSCR.XviD.AC3.LLG

  • Category Movies
  • Type DVD
  • Language English
  • Total size 1.4 GB
  • Uploaded By LifeLongg
  • Downloads 169
  • Last checked 13 minutes ago
  • Date uploaded 16 hours ago
  • Seeders 3
  • Leechers 0

Destroyer

ThrillerCrimeDrama

Erin Bell is an LAPD detective who, as a young cop, was placed undercover with a gang in the California desert with tragic results. When the leader of that gang re-emerges many years later, she must work her way back through the remaining members and into her own history with them to finally reckon with the demons that destroyed her past.

Infohash : DF788AB2EE07CB5104CBABF68EA57AD6DC1D1CA9

Quote:





******************************Thumbnail:**********************




******************************Screenshots:********************

Screenshot 1

Screenshot 2

Screenshot 3

Screenshot 4

Screenshot 5

Screenshot 6

Screenshot 7

Screenshot 8

Screenshot 9

Screenshot 0


***************************************************************

18+.Destroyer.2019.DVDSCR.XviD.AC3.With.Sample.LLG.mp4
Format : MPEG-4
Format profile : Base Media
Codec ID : isom (isom/iso2/avc1/mp41)
File size : 1.32 GiB
Duration : 2 h 0 min
Overall bit rate mode : Variable
Overall bit rate : 1 567 kb/s
Writing application : Lavf57.83.100

Video
ID : 1
Format : AVC
Format/Info : Advanced Video Codec
Format profile : [email protected]
Format settings : CABAC / 1 Ref Frames
Format settings, CABAC : Yes
Format settings, Reference frames : 1 frame
Codec ID : avc1
Codec ID/Info : Advanced Video Coding
Duration : 2 h 0 min
Bit rate mode : Variable
Bit rate : 1 180 kb/s
Maximum bit rate : 3 600 kb/s
Width : 720 pixels
Height : 304 pixels
Display aspect ratio : 2.35:1
Frame rate mode : Constant
Frame rate : 23.976 (23976/1000) FPS
Color space : YUV
Chroma subsampling : 4:2:0
Bit depth : 8 bits
Scan type : Progressive
Bits/(Pixel*Frame) : 0.225
Stream size : 1 020 MiB (75%)
Codec configuration box : avcC

Audio
ID : 2
Format : AC-3
Format/Info : Audio Coding 3
Commercial name : Dolby Digital
Codec ID : ac-3
Duration : 2 h 0 min
Bit rate mode : Constant
Bit rate : 384 kb/s
Channel(s) : 6 channels
Channel layout : L R C LFE Ls Rs
Sampling rate : 48.0 kHz
Frame rate : 31.250 FPS (1536 SPF)
Bit depth : 16 bits
Compression mode : Lossy
Stream size : 332 MiB (25%)
Service kind : Complete Main
Default : Yes
Alternate group : 1



****************************************************************


Files:

18+.Destroyer.2019.DVDSCR.XviD.AC3.LLG
  • SAMPLE.ts (20.6 MB)
  • SAMPLE 2.ts (23.9 MB)
  • 18+.Destroyer.2019.DVDSCR.XviD.AC3.With.Sample.LLG.mp4 (1.3 GB)

There are currently no comments. Feel free to leave one :)

Code:

  • udp://tracker.openbittorrent.com:80/announce
  • udp://tracker.opentrackr.org:1337/announce
  • UDP://TRACKER.LEECHERS-PARADISE.ORG:6969/ANNOUNCE
/08/e7/ff/08e7ffd6a1ad8052c7c702273b643766.js'>