Godzilla King of the Monsters 2019 1080p BluRay x264 DTS 5.1 MSub...

  • Category Movies
  • Type HD
  • Language English
  • Total size 4.4 GB
  • Uploaded By Hon3yHD
  • Downloads 295
  • Last checked 38 minutes ago
  • Date uploaded 15 hours ago
  • Seeders 21
  • Leechers 38

Godzilla: King of the Monsters

Science FictionThrillerAction

The new story follows the heroic efforts of the crypto-zoological agency Monarch as its members face off against a battery of god-sized monsters, including the mighty Godzilla, who collides with Mothra, Rodan, and his ultimate nemesis, the three-headed King Ghidorah. When these ancient super-species—thought to be mere myths—rise again, they all vie for supremacy, leaving humanity’s very existence hanging in the balance.

Infohash : 259034655342EFC0FB55CC4EC8AB44FDED5DDBCD



Godzilla King of the Monsters 2019 1080p BluRay x264 DTS 5.1 MSubS - Hon3yHD

Source: Remux @ Scene. Thanks!


Format : Matroska
Format version : Version 4 / Version 2
File size : 4.37 GiB
Duration : 2 h 11 min
Overall bit rate : 4 753 kb/s
Movie name : Godzilla King of the Monsters 2019 - Hon3yHD
Encoded date : UTC 2019-08-19 08:59:41
Writing application : mkvmerge v36.0.0 ('Is That Jazz?') 64-bit
Writing library : libebml v1.3.9 + libmatroska v1.5.2

Video
ID : 1
Format : AVC
Format/Info : Advanced Video Codec
Format profile : [email protected]
Format settings, CABAC : Yes
Format settings, ReFrames : 5 frames
Codec ID : V_MPEG4/ISO/AVC
Duration : 2 h 11 min
Bit rate : 3 983 kb/s
Width : 1 920 pixels
Height : 800 pixels
Display aspect ratio : 2.40:1
Frame rate mode : Constant
Frame rate : 23.976 (24000/1001) FPS
Color space : YUV
Chroma subsampling : 4:2:0
Bit depth : 8 bits
Scan type : Progressive
Bits/(Pixel*Frame) : 0.108
Stream size : 3.66 GiB (84%)
Writing library : x264 core 157 r2969 d4099dd
Encoding settings : cabac=1 / ref=5 / deblock=1:-1:-1 / analyse=0x3:0x133 / me=umh / subme=9 / psy=1 / psy_rd=1.00:0.15 / mixed_ref=1 / me_range=24 / chroma_me=1 / trellis=2 / 8x8dct=1 / cqm=0 / deadzone=21,11 / fast_pskip=0 / chroma_qp_offset=-3 / threads=12 / lookahead_threads=1 / sliced_threads=0 / nr=200 / decimate=1 / interlaced=0 / bluray_compat=0 / constrained_intra=0 / bframes=3 / b_pyramid=2 / b_adapt=2 / b_bias=0 / direct=3 / weightb=1 / open_gop=0 / weightp=2 / keyint=250 / keyint_min=23 / scenecut=40 / intra_refresh=0 / rc_lookahead=60 / rc=2pass / mbtree=1 / bitrate=3983 / ratetol=1.0 / qcomp=0.60 / qpmin=0 / qpmax=69 / qpstep=4 / cplxblur=20.0 / qblur=0.5 / ip_ratio=1.40 / aq=1:1.00
Language : English
Default : Yes
Forced : No
Color range : Limited
Color primaries : BT.709
Transfer characteristics : BT.709
Matrix coefficients : BT.709

Audio
ID : 2
Format : DTS
Format/Info : Digital Theater Systems
Mode : 16
Format settings, Endianness : Big
Codec ID : A_DTS
Duration : 2 h 11 min
Bit rate mode : Constant
Bit rate : 768 kb/s
Channel(s) : 6 channels
Channel positions : Front: L C R, Side: L R, LFE
Sampling rate : 48.0 kHz
Frame rate : 93.750 FPS (512 spf)
Bit depth : 24 bits
Compression mode : Lossy
Stream size : 724 MiB (16%)
Default : Yes
Forced : No

Text #1
ID : 3
Format : UTF-8
Codec ID : S_TEXT/UTF8
Codec ID/Info : UTF-8 Plain Text
Duration : 2 h 10 min
Bit rate : 44 b/s
Count of elements : 1310
Stream size : 42.6 KiB (0%)
Language : English
Default : Yes
Forced : No

Text #2
ID : 4
Format : UTF-8
Codec ID : S_TEXT/UTF8
Codec ID/Info : UTF-8 Plain Text
Duration : 2 h 11 min
Bit rate : 53 b/s
Count of elements : 1661
Stream size : 51.2 KiB (0%)
Language : English
Default : No
Forced : No

Text #3
ID : 5
Format : UTF-8
Codec ID : S_TEXT/UTF8
Codec ID/Info : UTF-8 Plain Text
Duration : 2 h 10 min
Bit rate : 40 b/s
Count of elements : 1276
Stream size : 38.8 KiB (0%)
Language : French
Default : No
Forced : No

Text #4
ID : 6
Format : UTF-8
Codec ID : S_TEXT/UTF8
Codec ID/Info : UTF-8 Plain Text
Duration : 1 h 59 min
Bit rate : 1 b/s
Count of elements : 28
Stream size : 1.04 KiB (0%)
Language : French
Default : No
Forced : No

Text #5
ID : 7
Format : UTF-8
Codec ID : S_TEXT/UTF8
Codec ID/Info : UTF-8 Plain Text
Duration : 2 h 10 min
Bit rate : 45 b/s
Count of elements : 1392
Stream size : 44.0 KiB (0%)
Language : Spanish
Default : No
Forced : No

Text #6
ID : 8
Format : UTF-8
Codec ID : S_TEXT/UTF8
Codec ID/Info : UTF-8 Plain Text
Duration : 2 h 0 min
Bit rate : 2 b/s
Count of elements : 51
Stream size : 2.08 KiB (0%)
Language : Spanish
Default : No
Forced : No

Text #7
ID : 9
Format : UTF-8
Codec ID : S_TEXT/UTF8
Codec ID/Info : UTF-8 Plain Text
Duration : 2 h 10 min
Bit rate : 46 b/s
Count of elements : 1391
Stream size : 44.2 KiB (0%)
Language : Portuguese
Default : No
Forced : No

Text #8
ID : 10
Format : UTF-8
Codec ID : S_TEXT/UTF8
Codec ID/Info : UTF-8 Plain Text
Duration : 2 h 1 min
Bit rate : 0 b/s
Count of elements : 18
Stream size : 536 Bytes (0%)
Language : Portuguese
Default : No
Forced : No

Text #9
ID : 11
Format : UTF-8
Codec ID : S_TEXT/UTF8
Codec ID/Info : UTF-8 Plain Text
Duration : 2 h 5 min
Bit rate : 0 b/s
Count of elements : 18
Stream size : 709 Bytes (0%)
Language : French
Default : No
Forced : No

Menu
00:00:00.000 : en:Chapter 01
00:10:53.903 : en:Chapter 02
00:18:06.502 : en:Chapter 03
00:30:26.991 : en:Chapter 04
00:45:18.590 : en:Chapter 05
00:54:11.039 : en:Chapter 06
01:05:41.646 : en:Chapter 07
01:09:31.584 : en:Chapter 08
01:19:31.099 : en:Chapter 09
01:30:05.983 : en:Chapter 10
01:38:36.785 : en:Chapter 11
01:49:58.883 : en:Chapter 12
01:59:28.828 : en:Chapter 13





Files:

Godzilla King of the Monsters 2019 1080p BluRay x264 DTS 5.1 MSubS - Hon3yHD
  • Hon3yHD.com.txt (0.0 KB)
  • Torrent Seed By www.cyber-planet.in.txt (0.1 KB)
  • Sample.mkv (20.1 MB)
  • Godzilla King of the Monsters 2019 1080p BluRay x264 DTS 5.1 MSubS - Hon3yHD.mkv (4.4 GB)

Comments

Code:

  • udp://tracker.coppersurfer.tk:6969/announce
  • udp://tracker.leechers-paradise.org:6969/announce
  • udp://bt.xxx-tracker.com:2710/announce
  • udp://tracker.internetwarriors.net:1337/announce
  • udp://tracker.openbittorrent.com:80/announce
  • udp://explodie.org:6969/announce
  • udp://tracker.opentrackr.org:1337/announce
  • udp://tracker.tiny-vps.com:6969/announce
  • udp://open.demonii.si:1337/announce
  • udp://tracker.torrent.eu.org:451/announce
  • udp://tracker.pirateparty.gr:6969/announce
  • udp://ipv4.tracker.harry.lu:80/announce
  • udp://tracker.cyberia.is:6969/announce
  • udp://9.rarbg.to:2710/announce
  • udp://denis.stalker.upeer.me:6969/announce
/08/e7/ff/08e7ffd6a1ad8052c7c702273b643766.js'>