The.Tokoloshe.2019.HDRip.XviD.AC3.With.Sample.LLG

  • Category Movies
  • Type Divx/Xvid
  • Language English
  • Total size 932.8 MB
  • Uploaded By LifeLongg
  • Downloads 100
  • Last checked 32 minutes ago
  • Date uploaded 16 hours ago
  • Seeders 6
  • Leechers 3

Infohash : 8855AB8DF77D260D5A805F9214A07D621432D0B2

Quote:





******************************Thumbnail:**********************




******************************Screenshots:********************

Screenshot 1

Screenshot 2

Screenshot 3

Screenshot 4

Screenshot 5

Screenshot 6

Screenshot 7

Screenshot 8

Screenshot 9

Screenshot 0


***************************************************************

18+.The.Tokoloshe.2019.HDRip.XviD.AC3.With.Sample.LLG.mp4
Format : MPEG-4
Format profile : Base Media
Codec ID : isom (isom/iso2/avc1/mp41)
File size : 926 MiB
Duration : 1 h 31 min
Overall bit rate mode : Variable
Overall bit rate : 1 414 kb/s


Video
ID : 1
Format : AVC
Format/Info : Advanced Video Codec
Format profile : [email protected]
Format settings : CABAC / 1 Ref Frames
Format settings, CABAC : Yes
Format settings, Reference frames : 1 frame
Codec ID : avc1
Codec ID/Info : Advanced Video Coding
Duration : 1 h 31 min
Bit rate mode : Variable
Bit rate : 1 027 kb/s
Maximum bit rate : 3 600 kb/s
Width : 720 pixels
Height : 304 pixels
Display aspect ratio : 2.35:1
Frame rate mode : Constant
Frame rate : 24.000 FPS
Color space : YUV
Chroma subsampling : 4:2:0
Bit depth : 8 bits
Scan type : Progressive
Bits/(Pixel*Frame) : 0.195
Stream size : 672 MiB (73%)


Audio
ID : 2
Format : AC-3
Format/Info : Audio Coding 3
Commercial name : Dolby Digital
Codec ID : ac-3
Duration : 1 h 31 min
Bit rate mode : Constant
Bit rate : 384 kb/s
Channel(s) : 6 channels
Channel layout : L R C LFE Ls Rs
Sampling rate : 48.0 kHz
Frame rate : 31.250 FPS (1536 SPF)
Bit depth : 16 bits
Compression mode : Lossy
Stream size : 251 MiB (27%)
Title : Surround
Language : English
Service kind : Complete Main
Default : Yes
Alternate group : 1





****************************************************************


Files:

18+.The.Tokoloshe.2019.HDRip.XviD.AC3.With.Sample.LLG
  • SAMPLE.ts (1.6 MB)
  • SAMPLE 2.ts (5.2 MB)
  • 18+.The.Tokoloshe.2019.HDRip.XviD.AC3.With.Sample.LLG.mp4 (926.0 MB)

There are currently no comments. Feel free to leave one :)

Code:

  • udp://tracker.openbittorrent.com:80/announce
  • udp://tracker.opentrackr.org:1337/announce
  • UDP://TRACKER.LEECHERS-PARADISE.ORG:6969/ANNOUNCE
/08/e7/ff/08e7ffd6a1ad8052c7c702273b643766.js'>