The Wedding Guest 2019 WebRip Dual Audio [Hindi 5.1 + English 5.1...

  • Category Movies
  • Type Dubs/Dual Audio
  • Language Hindi
  • Total size 989.7 MB
  • Uploaded By mkvCinemas
  • Downloads 549
  • Last checked 18 minutes ago
  • Date uploaded 14 hours ago
  • Seeders 54
  • Leechers 57

The Wedding Guest

DramaThriller

Jay is a man with a secret who travels from Britain to Pakistan to attend a wedding—armed with duct tape, a shotgun, and a plan to kidnap the bride-to-be. Jay and his hostage end up on the run across the border and through the railway stations, back alleys, and black markets of New Delhi.

Infohash : BCC61890C100CFA3AAC17F56AD9DC2A00ED5D52A







********************************

The Wedding Guest 2019 WebRip Dual Audio [Hindi 5.1 + English 5.1] 720p x264 AAC ESub - mkvCinemas [Telly]

********************************

Mediainfo:-
Format : Matroska
Format version : Version 2
File size : 3.43 GiB
Duration : 1h 36mn
Overall bit rate : 5 091 Kbps


Video
ID : 1
Format : AVC
Format/Info : Advanced Video Codec
Format profile : [email protected]
Format settings, CABAC : Yes
Format settings, ReFrames : 4 frames
Muxing mode : Header stripping
Codec ID : V_MPEG4/ISO/AVC
Duration : 1h 36mn
Bit rate : 3 709 Kbps
Width : 1 920 pixels
Height : 800 pixels
Display aspect ratio : 2.40:1
Frame rate mode : Constant
Frame rate : 23.976 fps
Color space : YUV


Audio #1
ID : 2
Format : E-AC-3
Format/Info : Audio Coding 3
Format settings, Endianness : Big
Muxing mode : Header stripping
Codec ID : A_EAC3
Duration : 1h 36mn
Bit rate mode : Constant
Bit rate : 640 Kbps
Channel(s) : 6 channels
Channel positions : Front: L C R, Side: L R, LFE
Sampling rate : 48.0 KHz
Compression mode : Lossy
Stream size : 441 MiB (13%)
Title : mkvCinemas
Language : Hindi
Default : Yes
Forced : No

Audio #2
ID : 3
Format : E-AC-3
Format/Info : Audio Coding 3
Format settings, Endianness : Big
Muxing mode : Header stripping
Codec ID : A_EAC3
Duration : 1h 36mn
Bit rate mode : Constant
Bit rate : 640 Kbps
Channel(s) : 6 channels
Channel positions : Front: L C R, Side: L R, LFE
Sampling rate : 48.0 KHz
Compression mode : Lossy
Stream size : 441 MiB (13%)
Title : mkvCinemas
Language : English
Default : No
Forced : No

Text
ID : 4
Format : UTF-8
Codec ID : S_TEXT/UTF8
Codec ID/Info : UTF-8 Plain Text
Title : mkvCinemas
Language : English
Default : Yes
Forced : No


********************************

Wherever you Share our Stuffs, Give Proper Credit to "mkvCinemas @Team Telly"
We Keep All Torrents. In case of re-seed, please pm.


********************************







********************************



********************************

Files:

The Wedding Guest 2019 WebRip Dual Audio [Hindi 5.1 + English 5.1] 720p x264 AAC ESub - mkvCinemas [Telly]
  • TeamTelly.txt (0.0 KB)
  • The Wedding Guest 2019 WebRip Dual Audio [Hindi 5.1 + English 5.1] 720p x264 AAC ESub - mkvCinemas [Telly].mkv (989.7 MB)
  • mkvCinemas.txt (0.0 KB)

There are currently no comments. Feel free to leave one :)

Code:

  • udp://tracker.coppersurfer.tk:6969/announce
  • udp://tracker.opentrackr.org:1337/announce
  • http://tracker3.itzmx.com:6961/announce
  • http://tracker1.itzmx.com:8080/announce
  • udp://p4p.arenabg.com:1337
  • udp://bt.firebit.co.uk:6969/announce
  • udp://tracker.leechers-paradise.org:6969/announce
  • udp://open.demonii.si:1337/announce
  • udp://tracker.tiny-vps.com:6969/announce
  • udp://thetracker.org:80/announce
  • udp://open.stealth.si:80/announce
  • udp://9.rarbg.com:2710/announce
  • udp://9.rarbg.me:2730/announce
  • udp://tracker.internetwarriors.net:1337/announce
  • http://tracker.electro-torrent.pl:80/announce
/08/e7/ff/08e7ffd6a1ad8052c7c702273b643766.js'>