Otherhood - La vita dopo i figli (2019).720p.H264.ita.eng.Ac3-5.1...

  • Category Movies
  • Type HD
  • Language English
  • Total size 2.0 GB
  • Uploaded By robbyrs
  • Downloads 57
  • Last checked 1 hour ago
  • Date uploaded 16 hours ago
  • Seeders 12
  • Leechers 10

Infohash : 720F6354C03E3357BD16C798D9CFCFE56B6F871A

Otherhood - La vita dopo i figli (2019).720p.H264.ita.eng.Ac3-5.1.MIRCrew


NO FOUND ONLY ORIGINAL RELEASE



My release is always in double track audio italian and Original audio
for select it use VLC or dvd player home
not use wmp

La vita dopo i figli - Otherhood (2019)

Quality MIRCrew on HD 720p da 2,0 gb









Titolo originale Otherhood
Lingua originale inglese
Paese di produzione Stati Uniti d'America
Anno 2019
Durata 100 min
Genere comico, sentimentale
Regia Cindy Chupack
Soggetto Whatever Makes You Happy di William Sutcliffe
Sceneggiatura Cindy Chupack, Mark Andrus



Angela Bassett: Carol Walker
Patricia Arquette: Gillian Lieberman
Felicity Huffman: Helen Halston
Jake Hoffman: Daniel Lieberman
Jake Lacy: Paul Halston-Myers
Sinqua Walls: Matt Walker
Heidi Gardner: Erin
Stephen Kunken: Joel Lieberman
Damian Young: Frank
Afton Williamson: Julia
Frank De Julio: Andre
Becki Newton: Andrea
Mario Cantone: Calvin
Emily Tremaine: Lauren Lieberman
Molly Bernard: Alison
Tim Bagley: Miles



Nel giorno della festa della mamma 3 amiche, vicine e madri si incontrano per parlare delle loro vite e per lamentarsi dei loro figli così distanti da loro nonostante quell'importante giornata. Tra recriminazioni e autocompatimento Helen decide improvvisamente, sulla base di quella ricorrenza, di partire con Gillian e Carol dalla piccola cittadina nella quale vivono per andare nella grande metropoli dove si sono stabiliti i loro tre figli per rinverdire i loro rapporti.



A grounded, soulful, celebratory comedy about three mothers and their adult sons. The film explores the stage after motherhood, Otherhood, when you have to redefine your relationship with your children, friends, spouse, and most importantly, yourself.







General

Complete name : La vita dopo i figli - Otherhood (2019).720p.H265.Ita Eng-Ac3 5.1-MIRCrew\La vita dopo i figli - Otherhood (2019).720p.H265.Ita Eng-Ac3 5.1-MIRCrew.mkv
Format : Matroska
Format version : Version 2
File size : 2.00 GiB
Duration : 1h 40mn
Overall bit rate : 2 853 Kbps
Movie name : MIRCrew
Encoded date : UTC 2019-08-02 16:19:26
Writing application : mkvmerge v5.8.0 ('No Sleep / Pillow') built on Sep 2 2012 15:37:04
Writing library : Lavf54.63.100
COMMENT : mircrew-releases

Video
ID : 1
Format : AVC
Format/Info : Advanced Video Codec
Format profile : [email protected]
Format settings, CABAC : Yes
Format settings, ReFrames : 2 frames
Codec ID : V_MPEG4/ISO/AVC
Duration : 1h 40mn
Bit rate : 1 900 Kbps
Nominal bit rate : 2 000 Kbps
Width : 1 280 pixels
Height : 720 pixels
Display aspect ratio : 16:9
Frame rate mode : Variable
Frame rate : 23.976 fps
Color space : YUV
Chroma subsampling : 4:2:0
Bit depth : 8 bits
Scan type : Progressive
Bits/(Pixel*Frame) : 0.086
Stream size : 1.34 GiB (67%)
Title : MIRCrew
Writing library : x264 core 130 r2273
Encoding settings : cabac=1 / ref=2 / deblock=1:0:0 / analyse=0x1:0x131 / me=hex / subme=7 / psy=1 / psy_rd=1.00:0.00 / mixed_ref=0 / me_range=16 / chroma_me=1 / trellis=1 / 8x8dct=0 / cqm=0 / deadzone=21,11 / fast_pskip=1 / chroma_qp_offset=-2 / threads=9 / lookahead_threads=1 / sliced_threads=0 / nr=0 / decimate=1 / interlaced=0 / bluray_compat=0 / constrained_intra=0 / bframes=3 / b_pyramid=0 / b_adapt=1 / b_bias=0 / direct=3 / weightb=1 / open_gop=0 / weightp=2 / keyint=230 / keyint_min=23 / scenecut=40 / intra_refresh=0 / rc_lookahead=40 / rc=abr / mbtree=1 / bitrate=2000 / ratetol=1.0 / qcomp=0.60 / qpmin=10 / qpmax=69 / qpstep=4 / vbv_maxrate=24000 / vbv_bufsize=24000 / nal_hrd=none / ip_ratio=1.40 / aq=1:1.00
Language : Italian
Default : Yes
Forced : No
DURATION : 01:40:36.990000000
NUMBER_OF_FRAMES : 144743
NUMBER_OF_BYTES : 3797261889
_STATISTICS_WRITING_APP : mkvmerge v35.0.0 ('All The Love In The World') 64-bit
_STATISTICS_WRITING_DATE_UTC : 2019-08-02 16:19:26
_STATISTICS_TAGS : BPS DURATION NUMBER_OF_FRAMES NUMBER_OF_BYTES

Audio #1
ID : 2
Format : AC-3
Format/Info : Audio Coding 3
Mode extension : CM (complete main)
Codec ID : A_AC3
Duration : 1h 40mn
Bit rate mode : Constant
Bit rate : 448 Kbps
Channel(s) : 6 channels
Channel positions : Front: L C R, Side: L R, LFE
Sampling rate : 48.0 KHz
Bit depth : 16 bits
Compression mode : Lossy
Delay relative to video : -5ms
Stream size : 322 MiB (16%)
Title : Ita Ac3 5.1
Language : Italian
Default : Yes
Forced : No
DURATION : 01:40:36.960000000
NUMBER_OF_FRAMES : 188655
NUMBER_OF_BYTES : 482956800
_STATISTICS_WRITING_APP : mkvmerge v35.0.0 ('All The Love In The World') 64-bit
_STATISTICS_WRITING_DATE_UTC : 2019-08-02 16:19:26
_STATISTICS_TAGS : BPS DURATION NUMBER_OF_FRAMES NUMBER_OF_BYTES

Audio #2
ID : 3
Format : AC-3
Format/Info : Audio Coding 3
Mode extension : CM (complete main)
Codec ID : A_AC3
Duration : 1h 40mn
Bit rate mode : Constant
Bit rate : 448 Kbps
Channel(s) : 6 channels
Channel positions : Front: L C R, Side: L R, LFE
Sampling rate : 48.0 KHz
Bit depth : 16 bits
Compression mode : Lossy
Delay relative to video : -5ms
Stream size : 322 MiB (16%)
Title : Eng Ac3 5.1
Language : English
Default : No
Forced : No
DURATION : 01:40:36.960000000
NUMBER_OF_FRAMES : 188655
NUMBER_OF_BYTES : 482956800
_STATISTICS_WRITING_APP : mkvmerge v35.0.0 ('All The Love In The World') 64-bit
_STATISTICS_WRITING_DATE_UTC : 2019-08-02 16:19:26
_STATISTICS_TAGS : BPS DURATION NUMBER_OF_FRAMES NUMBER_OF_BYTES




Files:

La vita dopo i figli - Otherhood (2019).720p.H265.Ita Eng-Ac3 5.1-MIRCrew
  • La vita dopo i figli - Otherhood (2019).720p.H265.Ita Eng-Ac3 5.1-MIRCrew.mkv (2.0 GB)
  • La vita dopo i figli - Otherhood (2019).720p.H265.Ita Eng-Ac3 5.1-MIRCrew.srt (0.1 KB)
  • leggete.txt (0.0 KB)
  • MIRCrew.png (182.3 KB)

There are currently no comments. Feel free to leave one :)

Code:

  • udp://tracker.opentrackr.org:1337/announce
  • udp://tracker.leechers-paradise.org:6969/announce
  • udp://tracker.coppersurfer.tk:6969/announce
  • udp://tracker.coppersurfer.tk:80/announce
  • udp://tracker.torrent.eu.org:451/announce
  • udp://tracker.pirateparty.gr:6969/announce
  • udp://tracker.eddie4.nl:6969/announce
  • udp://shadowshq.yi.org:6969/announce
  • udp://shadowshq.eddie4.nl:6969/announce
  • udp://inferno.demonoid.pw:3391/announce
  • udp://eddie4.nl:6969/announce
  • udp://9.rarbg.to:2730/announce
  • udp://9.rarbg.com:2710/announce
  • udp://9.rarbg.me:2780/announce
  • udp://62.138.0.158:6969/announce
/08/e7/ff/08e7ffd6a1ad8052c7c702273b643766.js'>