12 Years A Slave (2013) 720p Dual Audio Eng 2.0 Hindi 2.0 10bit B...

  • Category Movies
  • Type HEVC/x265
  • Language English
  • Total size 1.1 GB
  • Uploaded By BoyRocks
  • Downloads 976
  • Last checked 6 months ago
  • Date uploaded 6 months ago
  • Seeders 3
  • Leechers 2

12 Years a Slave

DramaHistory

In the pre-Civil War United States, Solomon Northup, a free black man from upstate New York, is abducted and sold into slavery. Facing cruelty as well as unexpected kindnesses Solomon struggles not only to stay alive, but to retain his dignity. In the twelfth year of his unforgettable odyssey, Solomon’s chance meeting with a Canadian abolitionist will forever alter his life.

Infohash : 1A5C7DE67134847E14D8DDD3246CA4F67D90A0BA

12 Years A Slave (2013) 720p Dual Audio Eng 2.0 Hindi 2.0 10bit BluRay x265 Hevc R92







Plz seed after download. Better Rip will come soon

Format                      : HEVC
Format/Info                 : High Efficiency Video Coding
Duration                    : 2 h 14 min
Bit rate                    : 900 kb/s
Width                       : 1 280 pixels
Height                      : 528 pixels
Display aspect ratio        : 2.40:1
Frame rate                  : 23.976 (24000/1001) FPS
Color space                 : YUV
Chroma subsampling          : 4:2:0
Bit depth                   : 10 bits
Stream size                 : 870 MiB (78%)

ID                          : 2
Format                      : AAC
Commercial name             : HE-AAC
Duration                    : 2 h 14 min
Bit rate                    : 82.0 kb/s
Channel(s)                  : 2 channels
Channel layout              : L R
Stream size                 : 76.8 MiB (7%)
Title                       : 2.0 AAC
Language                    : English


Audio #2
ID                          : 4
Format                      : AAC LC
Codec ID                    : A_AAC-2
Duration                    : 2 h 14 min
Bit rate                    : 174 kb/s
Channel(s)                  : 2 channels
Channel layout              : L R
Stream size                 : 168 MiB (15%)
Title                       : AAC 2.0 By encoded By Me
Language                    : Hindi


Text
ID                          : 3
Format                      : UTF-8
Codec ID                    : S_TEXT/UTF8
Codec ID/Info               : UTF-8 Plain Text
Duration                    : 2 h 12 min
Bit rate                    : 44 b/s
Count of elements           : 1498
Stream size                 : 43.3 KiB (0%)
Language                    : English


Menu
00:00:00.000                : en:00:00:00.000
00:06:02.862                : en:00:06:02.862
00:10:13.530                : en:00:10:13.530
00:12:58.778                : en:00:12:58.778
00:16:24.650                : en:00:16:24.650
00:19:18.866                : en:00:19:18.866
00:25:01.709                : en:00:25:01.709
00:27:48.458                : en:00:27:48.458
00:32:07.968                : en:00:32:07.968
00:36:07.874                : en:00:36:07.874
00:39:39.127                : en:00:39:39.127
00:45:16.714                : en:00:45:16.714
00:47:36.145                : en:00:47:36.145
00:52:26.977                : en:00:52:26.977
00:54:34.188                : en:00:54:34.188
00:59:34.029                : en:00:59:34.029
01:01:47.704                : en:01:01:47.704
01:06:04.544                : en:01:06:04.544
01:09:55.691                : en:01:09:55.691
01:12:47.989                : en:01:12:47.989
01:15:27.690                : en:01:15:27.690
01:18:31.874                : en:01:18:31.874
01:21:08.489                : en:01:21:08.489
01:23:46.688                : en:01:23:46.688
01:26:25.972                : en:01:26:25.972
01:28:18.877                : en:01:28:18.877
01:31:22.519                : en:01:31:22.519
01:34:10.144                : en:01:34:10.144
01:38:14.013                : en:01:38:14.013
01:41:50.313                : en:01:41:50.313
01:45:18.896                : en:01:45:18.896
01:53:09.908                : en:01:53:09.908
01:54:46.505                : en:01:54:46.505
02:00:22.215                : en:02:00:22.215
02:04:07.398                : en:02:04:07.398
02:07:25.721                : en:02:07:25.721


Note:
1. Dear Indian movies lover, plz seed after your completion of download becoz you people have not habit of seeding .
(प्रिय भारतीय फिल्म प्रेमी, कृपया download होने के बाद seed किया कीजिये ताकि दूसरे लोग भी download कर सके )
2. This file is not supported by Old devices so check before download and update your media player if you have capable device.
3. Plz seed after download. This world is run by sharing and caring

Files:

12 Years A Slave (2013) 720p Dual Audio Eng 2.0 Hindi 2.0 10bit BluRay x265 Hevc R92
  • NOTE & INFO Seed Afer download.txt (4.0 KB)
  • 12 Years A Slave (2013) 720p Dual Audio Eng 2.0 Hindi 2.0 10bit BluRay x265 Hevc R92.mkv (1.1 GB)

There are currently no comments. Feel free to leave one :)

Code:

  • udp://tracker.leechers-paradise.org:6969/announce
  • udp://tracker.opentrackr.org:1337/announce
  • udp://tracker.zer0day.to:1337/announce
  • udp://eddie4.nl:6969/announce
  • http://tracker.gbitt.info:80/announce
  • udp://torrentclub.tech:6969/announce
  • udp://tracker.uw0.xyz:6969/announce
  • http://tracker.torrentyorg.pl:80/announce
  • udp://retracker.lanta-net.ru:2710/announce
  • udp://bt.dy20188.com:80/announce
  • udp://retracker.baikal-telecom.net:2710/announce
  • https://tracker.vectahosting.eu:2053/announce
  • http://tracker.yoshi210.com:6969/announce
  • udp://denis.stalker.upeer.me:6969/announce
  • udp://explodie.org:6969/announce
  • udp://retracker.akado-ural.ru:80/announce
  • udp://opentracker.sktorrent.org:6969/announce
  • udp://tracker01.loveapp.com:6789/announce
  • udp://bt.xxx-tracker.com:2710/announce
  • https://t.quic.ws:443/announce
  • udp://tracker.nyaa.uk:6969/announce
  • udp://tracker.supertracker.net:1337/announce
  • https://bigfoot1942.sektori.org:443/announce
  • udp://open.demonii.si:1337/announce
  • https://tracker.fastdownload.xyz:443/announce
  • udp://tracker.filepit.to:6969/announce
  • udp://newtoncity.org:6969/announce
  • http://open.acgtracker.com:1096/announce
  • udp://amigacity.xyz:6969/announce
  • udp://tracker.gbitt.info:80/announce
  • udp://tracker.msm8916.com:6969/announce
  • udp://tracker.moeking.me:6969/announce
  • udp://tracker.internetwarriors.net:1337/announce
  • udp://tracker.coppersurfer.tk:6969/announce
  • udp://tracker.pirateparty.gr:6969/announce
  • http://gwp2-v19.rinet.ru:80/announce
  • http://tracker.dler.org:6969/announce
  • udp://tracker.iamhansen.xyz:2000/announce
  • udp://tracker.openbittorrent.com:80/announce
  • udp://tracker.pomf.se:80/announce
  • udp://tracker.tiny-vps.com:6969/announce
  • udp://tracker.torrent.eu.org:451/announce