Anaconda (1997) 1080p BluRay Dual Audio DD 5.1 Hindi English HEV...

  • Category Movies
  • Type HEVC/x265
  • Language English
  • Total size 1.3 GB
  • Uploaded By BoyRocks
  • Downloads 994
  • Last checked 6 months ago
  • Date uploaded 6 months ago
  • Seeders 3
  • Leechers 1

Anaconda

ActionAdventureHorrorThriller

A "National Geographic" film crew is taken hostage by an insane hunter, who takes them along on his quest to capture the world's largest - and deadliest - snake.

Infohash : C02F29498926CDFA8824910354A371EF359DF9C0

Anaconda (1997) 1080p BluRay Dual Audio  DD 5.1 Hindi English HEVC 8 bit x265 R92







Plz seed after download. This is best possible Rip in less size

just increase brightness and watch it from 1 meter distance . image quality will look great.

Anaconda (1997) 1080p BluRay Dual Audio  DD 5.1 Hindi English HEVC 8 bit x265 R92

Format                      : HEVC
Format/Info                 : High Efficiency Video Coding
Duration                    : 1 h 25 min
Bit rate                    : 1 638 kb/s
Width                       : 1 920 pixels
Height                      : 800 pixels
Display aspect ratio        : 2.40:1
Frame rate                  : 23.976 FPS
Color space                 : YUV
Chroma subsampling          : 4:2:0
Bit depth                   : 8 bits
Stream size                 : 1 003 MiB (73%)
Title                       : Anaconda (1997) 1080p BluRay DD5.1 HEVC 8 bit x265


Audio #1
ID                          : 2
Format                      : HE AAC
Duration                    : 1 h 25 min
Bit rate                    : 210 kb/s
Channel(s)                  : 6 channels
Channel layout              : C L R Ls Rs LFE
Sampling rate               : 48.0 kHz
Frame rate                  : 23.438 FPS (2048 SPF)
Stream size                 : 128 MiB (9%)
Title                       : 5.1 AAC 210 -249 kbps
Language                    : Hindi


Audio #2
ID                          : 5
Format                      : AAC LC
Duration                    : 1 h 25 min
Bit rate                    : 384 kb/s
Channel(s)                  : 6 channels
Channel layout              : C L R Ls Rs LFE
Sampling rate               : 48.0 kHz
Frame rate                  : 46.875 FPS (1024 SPF)
Compression mode            : Lossy
Stream size                 : 235 MiB (17%)
Language                    : English


Text #1
ID                          : 3
Format                      : PGS
Muxing mode                 : zlib
Codec ID                    : S_HDMV/PGS
Codec ID/Info               : Picture based subtitle format used on BDs/HD-DVDs
Title                       : English PGS
Language                    : English

Text #2
ID                          : 4
Format                      : UTF-8
Codec ID                    : S_TEXT/UTF8
Codec ID/Info               : UTF-8 Plain Text
Stream size                 : 18.3 KiB (0%)
Title                       : srt
Language                    : English

Note:
1. Dear Indian movies lover, plz seed after your completion of download becoz you people have not habit of seeding .
(प्रिय भारतीय फिल्म प्रेमी, कृपया download होने के बाद seed किया कीजिये ताकि दूसरे लोग भी download कर सके )
2. This file is not supported by Old devices so check before download and update your media player if you have capable device.
3. Plz seed after download. This world is run by sharing and caring

Files:

Anaconda (1997) 1080p BluRay Dual Audio DD 5.1 Hindi English HEVC 8 bit x265 R92
  • Note And info--- Plz seed after download.txt (2.8 KB)
  • Anaconda (1997) 1080p BluRay Dual Audio DD 5.1 Hindi English HEVC 8 bit x265 R92.mkv (1.3 GB)

Comments

Code:

  • udp://tracker.leechers-paradise.org:6969/announce
  • udp://tracker.opentrackr.org:1337/announce
  • udp://tracker.zer0day.to:1337/announce
  • udp://eddie4.nl:6969/announce
  • http://tracker.gbitt.info:80/announce
  • udp://torrentclub.tech:6969/announce
  • udp://tracker.uw0.xyz:6969/announce
  • http://tracker.torrentyorg.pl:80/announce
  • udp://retracker.lanta-net.ru:2710/announce
  • udp://bt.dy20188.com:80/announce
  • udp://retracker.baikal-telecom.net:2710/announce
  • https://tracker.vectahosting.eu:2053/announce
  • http://tracker.yoshi210.com:6969/announce
  • udp://denis.stalker.upeer.me:6969/announce
  • udp://explodie.org:6969/announce
  • udp://retracker.akado-ural.ru:80/announce
  • udp://opentracker.sktorrent.org:6969/announce
  • udp://tracker01.loveapp.com:6789/announce
  • udp://bt.xxx-tracker.com:2710/announce
  • https://t.quic.ws:443/announce
  • udp://tracker.nyaa.uk:6969/announce
  • udp://tracker.supertracker.net:1337/announce
  • https://bigfoot1942.sektori.org:443/announce
  • udp://open.demonii.si:1337/announce
  • https://tracker.fastdownload.xyz:443/announce
  • udp://tracker.filepit.to:6969/announce
  • udp://newtoncity.org:6969/announce
  • http://open.acgtracker.com:1096/announce
  • udp://amigacity.xyz:6969/announce
  • udp://tracker.gbitt.info:80/announce
  • udp://tracker.msm8916.com:6969/announce
  • udp://tracker.moeking.me:6969/announce
  • udp://tracker.internetwarriors.net:1337/announce
  • udp://tracker.coppersurfer.tk:6969/announce
  • udp://tracker.pirateparty.gr:6969/announce
  • http://gwp2-v19.rinet.ru:80/announce
  • http://tracker.dler.org:6969/announce
  • udp://tracker.iamhansen.xyz:2000/announce
  • udp://tracker.openbittorrent.com:80/announce
  • udp://tracker.pomf.se:80/announce
  • udp://tracker.tiny-vps.com:6969/announce
  • udp://tracker.torrent.eu.org:451/announce