Killers Anonymous 2019 1080p BluRay x264 DTS 5.1 MSubS -Hon3yHD

  • Category Movies
  • Type HD
  • Language English
  • Total size 4.4 GB
  • Uploaded By Hon3yHD
  • Downloads 606
  • Last checked 2 months ago
  • Date uploaded 2 months ago
  • Seeders 31
  • Leechers 41

Killers Anonymous

ActionThrillerCrimeMystery

A failed attempt to murder a Senator is connected to a group meeting secretly to discuss their darkest urges. To take lives.

Infohash : F95FE94612A323ADA825A8ED660C20C93380471E



Killers Anonymous 2019 1080p BluRay x264 DTS 5.1 MSubS -Hon3yHD


Source : Remux @ Scene . Thanks !

Format                      : Matroska
Format version              : Version 4 / Version 2
File size                   : 4.37 GiB
Duration                    : 1 h 35 min
Overall bit rate            : 6 524 kb/s
Movie name                  : Killers Anonymous 2019 - Hon3yHD
Encoded date                : UTC 2019-09-07 18:37:26
Writing application         : mkvmerge v37.0.0 ('Leave It') 64-bit
Writing library             : libebml v1.3.9 + libmatroska v1.5.2

Video
ID                          : 1
Format                      : AVC
Format/Info                 : Advanced Video Codec
Format profile              : [email protected]
Format settings, CABAC      : Yes
Format settings, ReFrames   : 5 frames
Codec ID                    : V_MPEG4/ISO/AVC
Duration                    : 1 h 35 min
Bit rate                    : 5 566 kb/s
Width                       : 1 920 pixels
Height                      : 816 pixels
Display aspect ratio        : 2.35:1
Frame rate mode             : Constant
Frame rate                  : 23.976 (24000/1001) FPS
Color space                 : YUV
Chroma subsampling          : 4:2:0
Bit depth                   : 8 bits
Scan type                   : Progressive
Bits/(Pixel*Frame)          : 0.148
Stream size                 : 3.73 GiB (85%)
Writing library             : x264 core 157 r2969 d4099dd
Encoding settings           : cabac=1 / ref=5 / deblock=1:-1:-1 / analyse=0x3:0x133 / me=umh / subme=9 / psy=1 / psy_rd=1.00:0.15 / mixed_ref=1 / me_range=24 / chroma_me=1 / trellis=2 / 8x8dct=1 / cqm=0 / deadzone=21,11 / fast_pskip=0 / chroma_qp_offset=-3 / threads=12 / lookahead_threads=1 / sliced_threads=0 / nr=200 / decimate=1 / interlaced=0 / bluray_compat=0 / constrained_intra=0 / bframes=3 / b_pyramid=2 / b_adapt=2 / b_bias=0 / direct=3 / weightb=1 / open_gop=0 / weightp=2 / keyint=250 / keyint_min=23 / scenecut=40 / intra_refresh=0 / rc_lookahead=60 / rc=2pass / mbtree=1 / bitrate=5566 / ratetol=1.0 / qcomp=0.60 / qpmin=0 / qpmax=69 / qpstep=4 / cplxblur=20.0 / qblur=0.5 / ip_ratio=1.40 / aq=1:1.00
Language                    : English
Default                     : Yes
Forced                      : No
Color range                 : Limited
Color primaries             : BT.709
Transfer characteristics    : BT.709
Matrix coefficients         : BT.709

Audio #1
ID                          : 2
Format                      : DTS
Format/Info                 : Digital Theater Systems
Mode                        : 16
Format settings, Endianness : Big
Codec ID                    : A_DTS
Duration                    : 1 h 35 min
Bit rate mode               : Constant
Bit rate                    : 768 kb/s
Channel(s)                  : 6 channels
Channel positions           : Front: L C R, Side: L R, LFE
Sampling rate               : 48.0 kHz
Frame rate                  : 93.750 FPS (512 spf)
Bit depth                   : 24 bits
Compression mode            : Lossy
Stream size                 : 527 MiB (12%)
Language                    : English
Default                     : Yes
Forced                      : No

Audio #2
ID                          : 3
Format                      : AC-3
Format/Info                 : Audio Coding 3
Mode extension              : CM (complete main)
Format settings, Endianness : Big
Codec ID                    : A_AC3
Duration                    : 1 h 35 min
Bit rate mode               : Constant
Bit rate                    : 192 kb/s
Channel(s)                  : 2 channels
Channel positions           : Front: L R
Sampling rate               : 48.0 kHz
Frame rate                  : 31.250 FPS (1536 spf)
Bit depth                   : 16 bits
Compression mode            : Lossy
Stream size                 : 132 MiB (3%)
Language                    : English
Default                     : No
Forced                      : No

Text #1
ID                          : 4
Format                      : UTF-8
Codec ID                    : S_TEXT/UTF8
Codec ID/Info               : UTF-8 Plain Text
Duration                    : 1 h 28 min
Bit rate                    : 73 b/s
Count of elements           : 1493
Stream size                 : 48.0 KiB (0%)
Language                    : English
Default                     : Yes
Forced                      : No

Text #2
ID                          : 5
Format                      : UTF-8
Codec ID                    : S_TEXT/UTF8
Codec ID/Info               : UTF-8 Plain Text
Duration                    : 1 h 29 min
Bit rate                    : 66 b/s
Count of elements           : 1314
Stream size                 : 43.4 KiB (0%)
Language                    : Spanish
Default                     : No
Forced                      : No

Menu
00:00:00.000                : en:Chapter 01
00:08:53.324                : en:Chapter 02
00:15:20.377                : en:Chapter 03
00:22:24.593                : en:Chapter 04
00:29:08.788                : en:Chapter 05
00:34:53.549                : en:Chapter 06
00:42:32.925                : en:Chapter 07
00:45:51.373                : en:Chapter 08
00:49:31.218                : en:Chapter 09
00:54:00.612                : en:Chapter 10
00:58:51.653                : en:Chapter 11
01:08:00.785                : en:Chapter 12
01:12:52.785                : en:Chapter 13
01:18:44.136                : en:Chapter 14
01:24:21.097                : en:Chapter 15
01:28:20.545                : en:Chapter 16






Files:

Killers Anonymous 2019 1080p BluRay x264 DTS 5.1 MSubS -Hon3yHD
  • Hon3yHD.net.txt (0.0 KB)
  • Torrent Seed By www.cyber-planet.in.txt (0.1 KB)
  • Sample.mkv (51.5 MB)
  • Killers Anonymous 2019 1080p BluRay x264 DTS 5.1 MSubS -Hon3yHD.mkv (4.4 GB)

There are currently no comments. Feel free to leave one :)

Code:

  • udp://tracker.coppersurfer.tk:6969/announce
  • udp://tracker.leechers-paradise.org:6969/announce
  • udp://bt.xxx-tracker.com:2710/announce
  • udp://tracker.internetwarriors.net:1337/announce
  • udp://tracker.openbittorrent.com:80/announce
  • udp://explodie.org:6969/announce
  • udp://tracker.opentrackr.org:1337/announce
  • udp://tracker.tiny-vps.com:6969/announce
  • udp://open.demonii.si:1337/announce
  • udp://tracker.torrent.eu.org:451/announce
  • udp://tracker.pirateparty.gr:6969/announce
  • udp://ipv4.tracker.harry.lu:80/announce
  • udp://tracker.cyberia.is:6969/announce
  • udp://9.rarbg.to:2710/announce
  • udp://denis.stalker.upeer.me:6969/announce
/08/e7/ff/08e7ffd6a1ad8052c7c702273b643766.js'>