Hawaa (2019) 720p UNCUT HDRip x264 ESubs [Dual Audio] [Hindi DD2....

  • Category Movies
  • Type Dubs/Dual Audio
  • Language Hindi
  • Total size 1.5 GB
  • Uploaded By Movienow7
  • Downloads 10374
  • Last checked 1 week ago
  • Date uploaded 2 weeks ago
  • Seeders 112
  • Leechers 53

Hawaa

ActionCrimeThriller

A Gripping Nightmarish Journey in Broad Daylight which revolves around 9 BRAINS, 9 CRIMES in 9 HOURS..!.

Infohash : 8F5CD0EFB1036BB674C4A65ECE6CFBCD6EB68965

Hawaa (2019) 720p UNCUT HDRip x264 ESubs [Dual Audio] [Hindi DD2.0 + Telugu DD5.1] Exclusive BABAHD

Exclusive Uploaded And Sync By @BabaHD





Source's : Video TRockers  & Hindi Audio @BabaHD.com Thanks


Video
ID : 1
Format : AVC
Format/Info : Advanced Video Codec
Format profile : [email protected]
Format settings : CABAC / 4 Ref Frames
Format settings, CABAC : Yes
Format settings, Reference frames : 4 frames
Codec ID : V_MPEG4/ISO/AVC
Duration : 1 h 43 min
Bit rate : 1 794 kb/s
Width : 1 280 pixels
Height : 544 pixels
Display aspect ratio : 2.35:1
Frame rate mode : Constant
Frame rate : 24.000 FPS
Color space : YUV
Chroma subsampling : 4:2:0
Bit depth : 8 bits
Scan type : Progressive
Bits/(Pixel*Frame) : 0.107
Stream size : 1.26 GiB (84%)
Writing library : x264 core
Color range : Limited
Matrix coefficients : BT.709

]
Audio #1
ID : 2
Format : AAC LC
Format/Info : Advanced Audio Codec Low Complexity
Codec ID : A_AAC-2
Duration : 1 h 43 min
Bit rate : 192 kb/s
Channel(s) : 2 channels
Channel layout : L R
Sampling rate : 48.0 kHz
Frame rate : 46.875 FPS (1024 SPF)
Compression mode : Lossy
Stream size : 141 MiB (9%)
Language : Hindi
Default : Yes
Forced : Yes


Audio #2
ID : 3
Format : AAC LC SBR
Format/Info : Advanced Audio Codec Low Complexity with Spectral Band Replication
Commercial name : HE-AAC
Format settings : Explicit
Codec ID : A_AAC-2
Duration : 1 h 43 min
Bit rate : 128 kb/s
Channel(s) : 2 channels
Channel layout : L R
Sampling rate : 48.0 kHz
Frame rate : 23.438 FPS (2048 SPF)
Compression mode : Lossy
Delay relative to video : 43 ms
Stream size : 95.1 MiB (6%)
Language : Telugu
Default : No
Forced : No


Text
ID : 4
Format : UTF-8
Codec ID : S_TEXT/UTF8
Codec ID/Info : UTF-8 Plain Text
Duration : 1 h 36 min
Bit rate : 55 b/s
Count of elements : 1172
Stream size : 39.1 KiB (0%)
Language : English
Default : Yes
Forced : No













Files:

  • Hawaa (2019) 720p UNCUT HDRip x264 ESubs [Hindi DD2.0 + Telugu DD5.1] BABAHD.mkv (1.5 GB)

Comments

Code:

  • udp://tracker.coppersurfer.tk:6969/announce
  • udp://tracker.ilibr.org:6969/announce
  • udp://tracker.ilibr.org:80/announce
  • udp://tracker.opentrackr.org:1337/announce
  • udp://zer0day.to:1337/announce
  • udp://tracker.zer0day.to:1337/announce
  • udp://p4p.arenabg.com:1337/announce
  • udp://p4p.arenabg.ch:1337/announce
  • udp://tracker.leechers-paradise.org:6969/announce
  • udp://explodie.org:6969/announce
  • udp://9.rarbg.to:2740/announce
  • udp://eddie4.nl:6969/announce
  • udp://9.rarbg.to:2740/announce
  • udp://tracker.opentrackr.org:1337/announce
  • http://tracker1.itzmx.com:8080/announce
  • http://tracker3.itzmx.com:6961/announce
  • udp://tracker.tiny-vps.com:6969/announce
  • udp://thetracker.org:80/announce
  • udp://open.demonii.si:1337/announce
  • udp://bt.firebit.co.uk:6969/announce
  • udp://tracker.leechers-paradise.org:6969/announce
  • udp://tracker.internetwarriors.net:1337/announce
  • udp://9.rarbg.to:2740/announce
  • udp://9.rarbg.me:2800/announce
  • udp://9.rarbg.com:2710/announce
  • udp://9.rarbg.me:2800/announce
  • udp://open.stealth.si:80/announce
  • udp://tracker.zer0day.to:1337/announce
  • udp://tracker.leechers-paradise.org:6969/announce
  • udp://coppersurfer.tk:6969/announce
/08/e7/ff/08e7ffd6a1ad8052c7c702273b643766.js'>