Prometheus 2012 1080p BluRay Hevc x265 10bit Dual Audio Hindi 5.1...

  • Category Movies
  • Type HEVC/x265
  • Language English
  • Total size 1.7 GB
  • Uploaded By BoyRocks
  • Downloads 1639
  • Last checked 6 months ago
  • Date uploaded 6 months ago
  • Seeders 2
  • Leechers 0

Prometheus

AdventureMysteryScience Fiction

A team of explorers discover a clue to the origins of mankind on Earth, leading them on a journey to the darkest corners of the universe. There, they must fight a terrifying battle to save the future of the human race.

Infohash : 2E80D2CE694C323108A0F47F74ED30DFB5FA8766










Plz seed after downlad

Prometheus 2012 1080p BluRay Hevc x265 10bit Dual Audio Hindi 5.1 Eng 7.1 R92


General
Prometheus 2012 1080p BluRay Hevc x265 10bit Dual Audio Hindi 5.1 Eng 7.1 R92.mkv
Format                      : Matroska
Format version              : Version 4
File size                   : 1.66 GiB
Duration                    : 1 h 57 min
Overall bit rate            : 2 023 kb/s
Movie name                  : Prometheus 2012 1080p BluRay Hevc x265 10bit Dual Audio Hindi 5.1 Eng 7.1 R92
Encoded date                : UTC 2017-03-08 12:40:39

Video
ID                          : 1
Format                      : HEVC
Format/Info                 : High Efficiency Video Coding
Format profile              : Main [email protected]@Main
Codec ID                    : V_MPEGH/ISO/HEVC
Duration                    : 1 h 57 min
Bit rate                    : 1 499 kb/s
Width                       : 1 920 pixels
Height                      : 800 pixels
Display aspect ratio        : 2.40:1
Frame rate mode             : Constant
Frame rate                  : 23.976 (24000/1001) FPS
Color space                 : YUV
Chroma subsampling          : 4:2:0
Bit depth                   : 10 bits
Bits/(Pixel*Frame)          : 0.041
Stream size                 : 1.23 GiB (74%)
Title                       : Prometheus 2012 1080p BluRay Hevc x265 10bit Dual Audio Hindi 5.1 Eng 7.1 R92

Audio #1
ID                          : 3
Format                      : AAC LC SBR
Duration                    : 1 h 57 min
Bit rate                    : 218 kb/s
Channel(s)                  : 6 channels
Channel layout              : C L R Ls Rs LFE
Sampling rate               : 48.0 kHz
Frame rate                  : 23.438 FPS (2048 SPF)
Compression mode            : Lossy
Delay relative to video     : 186 ms
Stream size                 : 184 MiB (11%)
Title                       : Dobly 5.1 AAC by me
Language                    : Hindi


Audio #2
ID                          : 4
Format                      : AAC LC SBR
Duration                    : 1 h 57 min
Bit rate                    : 298 kb/s
Channel(s)                  : 8 channels
Channel layout              : C L R Ls Rs Lb Rb LFE
Stream size                 : 251 MiB (15%)
Title                       : Dolby 7.1 AAC 298kbps
Language                    : English

Text #1
ID                          : 2
Format                      : VobSub
Muxing mode                 : zlib
Codec ID                    : S_VOBSUB
Codec ID/Info               : Picture based subtitle format used on DVDs
Duration                    : 1 h 54 min
Bit rate                    : 9 050 b/s
Count of elements           : 1602
Stream size                 : 7.39 MiB (0%)
Language                    : English
Default                     : Yes
Forced                      : No

Text #2
ID                          : 5
Format                      : UTF-8
Codec ID                    : S_TEXT/UTF8
Codec ID/Info               : UTF-8 Plain Text
Duration                    : 1 h 51 min
Bit rate                    : 45 b/s
Count of elements           : 1571
Stream size                 : 37.2 KiB (0%)
Title                       : English
Language                    : English
Default                     : No
Forced                      : No

Menu
00:00:00.000                : en:00:00:00.000
00:04:22.178                : en:00:05:13.146
00:06:53.913                : en:00:07:44.881
00:10:40.556                : en:00:11:31.524
00:14:18.816                : en:00:15:09.784
00:19:13.944                : en:00:20:04.912
00:21:41.842                : en:00:22:32.810
00:26:52.152                : en:00:27:43.120
00:31:06.865                : en:00:31:57.833
00:33:19.872                : en:00:34:10.840
00:37:02.261                : en:00:37:53.229
00:39:54.392                : en:00:40:45.360
00:44:58.362                : en:00:45:49.330
00:47:56.957                : en:00:48:47.925
00:49:32.094                : en:00:50:23.062
00:53:05.432                : en:00:53:56.400
00:55:41.254                : en:00:56:32.222
00:58:40.642                : en:00:59:31.610
01:00:38.217                : en:01:01:29.185
01:03:26.594                : en:01:04:17.562
01:05:10.489                : en:01:06:01.457
01:08:06.916                : en:01:08:57.884
01:10:22.551                : en:01:11:13.519
01:14:19.663                : en:01:15:10.631
01:16:15.070                : en:01:17:06.038
01:24:11.338                : en:01:25:02.306
01:26:18.381                : en:01:27:09.349
01:29:19.395                : en:01:30:10.363
01:31:52.757                : en:01:32:43.725
01:34:32.166                : en:01:35:23.134
01:36:55.893                : en:01:37:46.861
01:39:55.406                : en:01:40:46.374
01:42:55.252                : en:01:43:46.220
01:47:37.826                : en:01:48:28.794
01:51:17.128                : en:01:52:08.096
01:57:15.320                : en:01:58:06.288



Note:
1. Dear Indian movies lover, plz seed after your completion of download becoz you people have not habit of seeding .
(प्रिय भारतीय फिल्म प्रेमी, कृपया download होने के बाद seed किया कीजिये ताकि दूसरे लोग भी download कर सके )
2. This file is not supported by Old devices so check before download and update your media player if you have capable device.
3. Plz seed after download. This world is run by sharing and caring

Files:

Prometheus 2012 1080p BluRay Hevc x265 10bit Dual Audio Hindi 5.1 Eng 7.1 R92
  • Note And info--- Plz seed after download.txt (10.6 KB)
  • Prometheus 2012 1080p BluRay Hevc x265 10bit Dual Audio Hindi 5.1 Eng 7.1 R92.mkv (1.7 GB)

Comments

Code:

  • udp://tracker.leechers-paradise.org:6969/announce
  • udp://tracker.opentrackr.org:1337/announce
  • udp://tracker.zer0day.to:1337/announce
  • udp://eddie4.nl:6969/announce
  • http://tracker.gbitt.info:80/announce
  • udp://torrentclub.tech:6969/announce
  • udp://tracker.uw0.xyz:6969/announce
  • http://tracker.torrentyorg.pl:80/announce
  • udp://retracker.lanta-net.ru:2710/announce
  • udp://bt.dy20188.com:80/announce
  • udp://retracker.baikal-telecom.net:2710/announce
  • https://tracker.vectahosting.eu:2053/announce
  • http://tracker.yoshi210.com:6969/announce
  • udp://denis.stalker.upeer.me:6969/announce
  • udp://explodie.org:6969/announce
  • udp://retracker.akado-ural.ru:80/announce
  • udp://opentracker.sktorrent.org:6969/announce
  • udp://tracker01.loveapp.com:6789/announce
  • udp://bt.xxx-tracker.com:2710/announce
  • https://t.quic.ws:443/announce
  • udp://tracker.nyaa.uk:6969/announce
  • udp://tracker.supertracker.net:1337/announce
  • https://bigfoot1942.sektori.org:443/announce
  • udp://open.demonii.si:1337/announce
  • https://tracker.fastdownload.xyz:443/announce
  • udp://tracker.filepit.to:6969/announce
  • udp://newtoncity.org:6969/announce
  • http://open.acgtracker.com:1096/announce
  • udp://amigacity.xyz:6969/announce
  • udp://tracker.gbitt.info:80/announce
  • udp://tracker.msm8916.com:6969/announce
  • udp://tracker.moeking.me:6969/announce
  • udp://tracker.internetwarriors.net:1337/announce
  • udp://tracker.coppersurfer.tk:6969/announce
  • udp://tracker.pirateparty.gr:6969/announce
  • http://gwp2-v19.rinet.ru:80/announce
  • http://tracker.dler.org:6969/announce
  • udp://tracker.iamhansen.xyz:2000/announce
  • udp://tracker.openbittorrent.com:80/announce
  • udp://tracker.pomf.se:80/announce
  • udp://tracker.tiny-vps.com:6969/announce
  • udp://tracker.torrent.eu.org:451/announce