Behrupiya (2019) ULLU Hindi 1080p WEB DL

  • Category TV
  • Type HD
  • Language Hindi
  • Total size 299.5 MB
  • Uploaded By krishh1337
  • Downloads 16430
  • Last checked 1 week ago
  • Date uploaded 1 week ago
  • Seeders 90
  • Leechers 14

Infohash : 31A44E8CF3DAD57289C38B8E5021A37EC931CF0C



Charmsukh E03 Behrupiya

Storyline:
Preeti unwillingly gets convinced by her family to marry Shekhar a millionaire.
Preeti goes mad for his dashing personality and agrees for a romantic night before their marriage.
Preeti's dream night was set on fire with the hotness of their bodies, but a surprise shaken and shocken her for the whole life.
Watch a surprising tale of a night full of dream and scream.

Cast
SAUMYA TIWARI, NIDHI MAHAWAN, NIKITA NIKAS, ASHUTOSH
Director
Shubhobroto Sengupta

Format : Matroska
Format version : Version 4
File size : 300 MiB
Duration : 17 min 24 s
Overall bit rate : 2 405 kb/s

Video
ID : 1
Format : AVC
Format/Info : Advanced Video Codec
Format profile : [email protected]
Format settings : CABAC / 4 Ref Frames
Format settings, CABAC : Yes
Format settings, ReFrames : 4 frames
Codec ID : V_MPEG4/ISO/AVC
Duration : 17 min 24 s
Bit rate : 2 254 kb/s
Width : 1 920 pixels
Height : 1 080 pixels
Display aspect ratio : 16:9
Frame rate mode : Constant
Frame rate : 25.000 FPS
Color space : YUV
Chroma subsampling : 4:2:0
Bit depth : 8 bits
Scan type : Progressive
Bits/(Pixel*Frame) : 0.043
Stream size : 281 MiB (94%)

Audio
ID : 2
Format : AAC LC
Format/Info : Advanced Audio Codec Low Complexity
Codec ID : A_AAC-2
Duration : 17 min 24 s
Bit rate : 150 kb/s
Channel(s) : 2 channels
Channel layout : L R
Sampling rate : 44.1 kHz
Frame rate : 43.066 FPS (1024 SPF)
Compression mode : Lossy
Stream size : 18.6 MiB (6%)
Language : Hindi
Default : Yes
Forced : No

Files:

Behrupiya (2019) ULLU Hindi 1080p WEB DL
  • Charmsukh Episode 03 Behrupiya.mkv (299.5 MB)

Comments

Code:

  • udp://tracker.openbittorrent.com:80/announce
  • udp://tracker.opentrackr.org:1337/annouce
  • udp://tracker.leechers-paradise.org:6969/announce
  • udp://tracker.coppersurfer.tk:6969/announce
  • udp://retracker.baikal-telecom.net:2710/announce
  • udp://open.demonii.si:1337/announce
  • udp://tracker.internetwarriors.net:1337/announce
  • udp://tracker.uw0.xyz:6969/announce
  • udp://bt.xxx-tracker.com:2710/announce
  • udp://retracker.akado-ural.ru:80/announce
  • udp://tracker.supertracker.net:1337/announce
  • udp://retracker.maxnet.ua:80/announce
  • UDP://TRACKER.LEECHERS-PARADISE.ORG:6969/ANNOUNCE
  • UDP://TRACKER.COPPERSURFER.TK:6969/ANNOUNCE
  • UDP://TRACKER.OPENTRACKR.ORG:1337/ANNOUNCE
  • UDP://TRACKER.ZER0DAY.TO:1337/ANNOUNCE
  • UDP://EDDIE4.NL:6969/ANNOUNCE
/08/e7/ff/08e7ffd6a1ad8052c7c702273b643766.js'>