The Shawshank Redemption 1994 1080p bluray x265 HEVC Dual Audio ...

  • Category Movies
  • Type HEVC/x265
  • Language English
  • Total size 1.5 GB
  • Uploaded By BoyRocks
  • Downloads 515
  • Last checked 6 months ago
  • Date uploaded 6 months ago
  • Seeders 1
  • Leechers 0

The Shawshank Redemption

CrimeDrama

Framed in the 1940s for the double murder of his wife and her lover, upstanding banker Andy Dufresne begins a new life at the Shawshank prison, where he puts his accounting skills to work for an amoral warden. During his long stretch in prison, Dufresne comes to be admired by the other inmates -- including an older prisoner named Red -- for his integrity and unquenchable sense of hope.

Infohash : 9DACEB182364806E8DF0441EF88F1C08D38F53EF

This is best movie of all time.
This is not my work. This is just Re-mux of joybell (UTR) and bhatti87 audio to just provide in Hindi and less size.
All credit goes to Joybell and Bhatti87(for hindi audio)










The Shawshank Redemption (1994) 1080p Bluray x265 Hevc Dual Audio Eng 5.1 Hindi 2.0 R92


watch it from 1 meter distance

Format                      : Matroska
Format version              : Version 4
File size                   : 1.46 GiB
Duration                    : 2 h 22 min
Overall bit rate            : 1 468 kb/s
Movie name                  : The Shawshank Redemption 1994 1080p x265 Hevc Dual Audio Eng 5.1 Hindi 2.0 R92
Encoded date                : UTC 2017-09-03 15:17:30

Video
Format                      : HEVC
Duration                    : 2 h 22 min
Bit rate                    : 901 kb/s
Width                       : 1 920 pixels
Height                      : 1 080 pixels
Display aspect ratio        : 16:9
Frame rate                  : 23.976 (24000/1001) FPS
Color space                 : YUV
Chroma subsampling          : 4:2:0
Bit depth                   : 8 bits
Bits/(Pixel*Frame)          : 0.018
Stream size                 : 918 MiB (61%)
Title                       : Encoded By Joy UTR
Language                    : English
Default                     : Yes
Forced                      : No
Color range                 : Limited

Audio #1
ID                          : 7
Format                      : AAC LC
Duration                    : 2 h 22 min
Bit rate                    : 256 kb/s
Channel(s)                  : 2 channels
Channel layout              : L R
Sampling rate               : 48.0 kHz
Frame rate                  : 46.875 FPS (1024 SPF)
Compression mode            : Lossy
Delay relative to video     : 1 s 62 ms
Stream size                 : 261 MiB (17%)
Title                       : 2.0 Ch 256 Kbps By BHATTI87
Language                    : Hindi

Audio #2
ID                          : 8
Format                      : AAC LC SBR
Duration                    : 2 h 22 min
Bit rate                    : 192 kb/s
Channel(s)                  : 6 channels
Channel layout              : C L R Ls Rs LFE
Sampling rate               : 48.0 kHz
Frame rate                  : 23.438 FPS (2048 SPF)
Compression mode            : Lossy
Delay relative to video     : -167 ms
Stream size                 : 196 MiB (13%)
Title                       : Dolby AAC 5.1
Language                    : English



Audio #3
ID                          : 9
Format                      : AAC LC SBR
Format/Info                 : Advanced Audio Codec Low Complexity with Spectral Band Replication
Commercial name             : HE-AAC
Format settings             : Explicit
Codec ID                    : A_AAC-2
Duration                    : 2 h 22 min
Bit rate                    : 64.0 kb/s
Channel(s)                  : 2 channels
Channel layout              : L R
Sampling rate               : 48.0 kHz
Frame rate                  : 23.438 FPS (2048 SPF)
Compression mode            : Lossy
Delay relative to video     : -167 ms
Stream size                 : 65.3 MiB (4%)
Title                       : Commentry 2.0 ch
Language                    : English

Text #1
ID                          : 2
Format                      : PGS
Muxing mode                 : zlib
Codec ID                    : S_HDMV/PGS
Codec ID/Info               : Picture based subtitle format used on BDs/HD-DVDs
Bit rate                    : 0 b/s
Count of elements           : 0
Stream size                 : 0.00 Byte (0%)
Language                    : English
Default                     : Yes
Forced                      : No

Text #2
ID                          : 3
Format                      : PGS
Muxing mode                 : zlib
Codec ID                    : S_HDMV/PGS
Codec ID/Info               : Picture based subtitle format used on BDs/HD-DVDs
Duration                    : 2 h 15 min
Bit rate                    : 32.8 kb/s
Count of elements           : 3378
Stream size                 : 31.8 MiB (2%)
Language                    : English
Default                     : No
Forced                      : No

Text #3
ID                          : 4
Format                      : PGS
Muxing mode                 : zlib
Codec ID                    : S_HDMV/PGS
Codec ID/Info               : Picture based subtitle format used on BDs/HD-DVDs
Duration                    : 2 h 16 min
Bit rate                    : 22.7 kb/s
Count of elements           : 3172
Stream size                 : 22.3 MiB (1%)
Language                    : French
Default                     : No
Forced                      : No

Text #4
ID                          : 5
Format                      : PGS
Muxing mode                 : zlib
Codec ID                    : S_HDMV/PGS
Codec ID/Info               : Picture based subtitle format used on BDs/HD-DVDs
Duration                    : 2 h 17 min
Bit rate                    : 29.7 kb/s
Count of elements           : 3390
Stream size                 : 29.2 MiB (2%)
Language                    : Spanish
Default                     : No
Forced                      : No

Text #5
ID                          : 6
Format                      : PGS
Muxing mode                 : zlib
Codec ID                    : S_HDMV/PGS
Codec ID/Info               : Picture based subtitle format used on BDs/HD-DVDs
Duration                    : 2 h 17 min
Bit rate                    : 32.0 kb/s
Count of elements           : 3398
Stream size                 : 31.5 MiB (2%)
Language                    : Portuguese
Default                     : No
Forced                      : No

Menu
00:00:00.000                : :On Trial.
00:04:41.323                : :Icy/Remorseless.
00:06:41.026                : :Guy Can Get It.
00:10:08.525                : :Stiff Breeze.
00:13:47.285                : :Fresh Fish.
00:18:04.500                : :Nameless.
00:23:44.465                : :First Request.
00:29:02.282                : :Andy's Routine.
00:33:34.054                : :Beer on the Roof.
00:38:52.122                : :Like Everyone Else.
00:41:07.423                : :Second Request.
00:42:41.851                : :A Pair of Beatings.
00:46:15.606                : :Welcome Back.
00:48:15.643                : :Cell Toss.
00:51:22.746                : :A Cottage Industry.
00:57:20.312                : :What They Take.
01:00:28.667                : :Brooks Was Here.
01:05:47.027                : :Shipment for Andy.
01:07:17.867                : :Time for Mozart.
01:11:14.020                : :The Danger of Hope.
01:13:54.430                : :Rejection Present.
01:15:56.761                : :Keeping the Books.
01:21:09.448                : :A Crook in Prison.
01:24:00.160                : :Tommy Williams.
01:29:27.487                : :Elmo Blatch.
01:32:11.693                : :Solitary.
01:35:38.358                : :Sniper's Target.
01:38:30.071                : :Norton's Drift.
01:40:39.575                : :Certain Hay Field.
01:47:24.355                : :The Longest Night.
01:50:46.849                : :Vanished.
01:54:32.324                : :Andy's Way Out.
02:00:46.656                : :Judgment Cometh.
02:04:10.527                : :Not Meant/Caged.
02:06:01.554                : :Rehabilitated.
02:08:27.033                : :On the Outside.
02:10:14.724                : :Honoring a Promise.
02:12:57.345                : :"No Good Thing..."
02:16:28.931                : :Free Man's Dreams.
02:18:18.707                : :Dedication/Credits.


Note:
1. Dear Indian movies lover, plz seed after your completion of download becoz you people have not habit of seeding .
(प्रिय भारतीय फिल्म प्रेमी, कृपया download होने के बाद seed किया कीजिये ताकि दूसरे लोग भी download कर सके )
2. This file is not supported by Old devices so check before download and update your media player if you have capable device.
3. Plz seed after download. This world is run by sharing and caring

Files:

The Shawshank Redemption (1994) 1080p x265 HEVC Dual Audio Eng 5.1 Hindi 2.0 R92
  • Note And info--- Plz seed after download.txt (15.5 KB)
  • The Shawshank Redemption (1994) 1080p x265 Hevc Dual Audio Eng 5.1 Hindi 2.0 R92.mkv (1.5 GB)

There are currently no comments. Feel free to leave one :)

Code:

  • udp://tracker.leechers-paradise.org:6969/announce
  • udp://tracker.opentrackr.org:1337/announce
  • udp://tracker.zer0day.to:1337/announce
  • udp://eddie4.nl:6969/announce
  • http://tracker.gbitt.info:80/announce
  • udp://torrentclub.tech:6969/announce
  • udp://tracker.uw0.xyz:6969/announce
  • http://tracker.torrentyorg.pl:80/announce
  • udp://retracker.lanta-net.ru:2710/announce
  • udp://bt.dy20188.com:80/announce
  • udp://retracker.baikal-telecom.net:2710/announce
  • https://tracker.vectahosting.eu:2053/announce
  • http://tracker.yoshi210.com:6969/announce
  • udp://denis.stalker.upeer.me:6969/announce
  • udp://explodie.org:6969/announce
  • udp://retracker.akado-ural.ru:80/announce
  • udp://opentracker.sktorrent.org:6969/announce
  • udp://tracker01.loveapp.com:6789/announce
  • udp://bt.xxx-tracker.com:2710/announce
  • https://t.quic.ws:443/announce
  • udp://tracker.nyaa.uk:6969/announce
  • udp://tracker.supertracker.net:1337/announce
  • https://bigfoot1942.sektori.org:443/announce
  • udp://open.demonii.si:1337/announce
  • https://tracker.fastdownload.xyz:443/announce
  • udp://tracker.filepit.to:6969/announce
  • udp://newtoncity.org:6969/announce
  • http://open.acgtracker.com:1096/announce
  • udp://amigacity.xyz:6969/announce
  • udp://tracker.gbitt.info:80/announce
  • udp://tracker.msm8916.com:6969/announce
  • udp://tracker.moeking.me:6969/announce
  • udp://tracker.internetwarriors.net:1337/announce
  • udp://tracker.coppersurfer.tk:6969/announce
  • udp://tracker.pirateparty.gr:6969/announce
  • http://gwp2-v19.rinet.ru:80/announce
  • http://tracker.dler.org:6969/announce
  • udp://tracker.iamhansen.xyz:2000/announce
  • udp://tracker.openbittorrent.com:80/announce
  • udp://tracker.pomf.se:80/announce
  • udp://tracker.tiny-vps.com:6969/announce
  • udp://tracker.torrent.eu.org:451/announce