Men in Black: International (2019).H264.ita.eng.Ac3-5.1.sub.eng f...

  • Category Movies
  • Type h.264/x264
  • Language English
  • Total size 1.8 GB
  • Uploaded By robbyrs
  • Downloads 79
  • Last checked 5 hours ago
  • Date uploaded 1 day ago
  • Seeders 4
  • Leechers 3

Infohash : 07B5935F25C52CC1ED19BE1B393FD551DA4BE140

Men in Black: International (2019).H264.ita.eng.Ac3-5.1.sub.eng forced.ita-MIRCrew






NO FOUND ONLY ORIGINAL RELEASE


My release is always in double track audio italian and Original audio
for select it use VLC or dvd player home
not use wmp

Men in Black: International (2019)









Lingua originale inglese
Paese di produzione Stati Uniti d'America
Anno 2019
Durata 115 min
Genere azione, fantascienza, commedia, avventura
Regia F. Gary Gray
Soggetto Lowell Cunningham, Sandy Currethers
Sceneggiatura Art Marcum, Matt Holloway



Chris Hemsworth: Agente H
Tessa Thompson: Agente M
Liam Neeson: Direttore High T
Rafe Spall: Agente C
Emma Thompson: Agente O
Rebecca Ferguson: Riza Stavros
Les Twins: i Gemelli
Spencer Wilding: Luca Brasi
Ariana Grande: Aliena sui monitor



Ventitré anni dopo, essendo state respinte le richieste dalle agenzie governative sulla base delle sue "esperienze" riguardo alle prove della vita aliena, Molly riesce a scoprire uno sbarco alieno e a penetrare nel quartier generale dell'MiB di New York. Anche se viene catturata entrando nell'agenzia



The Men in Black have always protected the Earth from the scum of the universe. In this new adventure, they tackle their biggest threat to date: a mole in the Men in Black organization.










General

Complete name : Men in Black International (2019).h264.ita.eng.sub.eng-MIRCrew\Men in Black International (2019).h264.ita.eng.sub.eng-MIRCrew.mkv
Format : Matroska
Format version : Version 2
File size : 1.76 GiB
Duration : 1h 54mn
Overall bit rate : 2 193 Kbps
Movie name : MIRCrew
Encoded date : UTC 2019-08-24 07:08:31
Writing application : mkvmerge v5.8.0 ('No Sleep / Pillow') built on Sep 2 2012 15:37:04
Writing library : Lavf54.63.100
COMMENT : mircrew-releases
COPYRIGHT : robbyrs

Video
ID : 1
Format : AVC
Format/Info : Advanced Video Codec
Format profile : [email protected]
Format settings, CABAC : Yes
Format settings, ReFrames : 2 frames
Codec ID : V_MPEG4/ISO/AVC
Duration : 1h 54mn
Bit rate : 1 300 Kbps
Width : 720 pixels
Height : 352 pixels
Display aspect ratio : 2.000
Frame rate mode : Variable
Frame rate : 23.976 fps
Color space : YUV
Chroma subsampling : 4:2:0
Bit depth : 8 bits
Scan type : Progressive
Bits/(Pixel*Frame) : 0.214
Stream size : 1.01 GiB (57%)
Title : MIRCrew
Writing library : x264 core 130 r2273
Encoding settings : cabac=1 / ref=2 / deblock=1:0:0 / analyse=0x1:0x131 / me=hex / subme=7 / psy=1 / psy_rd=1.00:0.00 / mixed_ref=0 / me_range=16 / chroma_me=1 / trellis=1 / 8x8dct=0 / cqm=0 / deadzone=21,11 / fast_pskip=1 / chroma_qp_offset=-2 / threads=9 / lookahead_threads=1 / sliced_threads=0 / nr=0 / decimate=1 / interlaced=0 / bluray_compat=0 / constrained_intra=0 / bframes=3 / b_pyramid=0 / b_adapt=1 / b_bias=0 / direct=3 / weightb=1 / open_gop=0 / weightp=2 / keyint=230 / keyint_min=23 / scenecut=40 / intra_refresh=0 / rc_lookahead=40 / rc=abr / mbtree=1 / bitrate=1300 / ratetol=1.0 / qcomp=0.60 / qpmin=10 / qpmax=69 / qpstep=4 / vbv_maxrate=24000 / vbv_bufsize=24000 / nal_hrd=none / ip_ratio=1.40 / aq=1:1.00
Language : Italian
Default : Yes
Forced : No
DURATION : 01:54:49.883000000
NUMBER_OF_FRAMES : 165192
NUMBER_OF_BYTES : 8087317554
_STATISTICS_WRITING_APP : mkvmerge v35.0.0 ('All The Love In The World') 64-bit
_STATISTICS_WRITING_DATE_UTC : 2019-08-24 07:08:31
_STATISTICS_TAGS : BPS DURATION NUMBER_OF_FRAMES NUMBER_OF_BYTES

Audio #1
ID : 2
Format : AC-3
Format/Info : Audio Coding 3
Mode extension : CM (complete main)
Codec ID : A_AC3
Duration : 1h 54mn
Bit rate mode : Constant
Bit rate : 448 Kbps
Channel(s) : 6 channels
Channel positions : Front: L C R, Side: L R, LFE
Sampling rate : 48.0 KHz
Bit depth : 16 bits
Compression mode : Lossy
Delay relative to video : -42ms
Stream size : 368 MiB (20%)
Title : Ita Ac3 5.1
Language : English
Default : No
Forced : No
DURATION : 01:54:49.952000000
NUMBER_OF_FRAMES : 645933
NUMBER_OF_BYTES : 3263243124
_STATISTICS_WRITING_APP : mkvmerge v35.0.0 ('All The Love In The World') 64-bit
_STATISTICS_WRITING_DATE_UTC : 2019-08-24 07:08:31
_STATISTICS_TAGS : BPS DURATION NUMBER_OF_FRAMES NUMBER_OF_BYTES

Audio #2
ID : 3
Format : AC-3
Format/Info : Audio Coding 3
Mode extension : CM (complete main)
Codec ID : A_AC3
Duration : 1h 54mn
Bit rate mode : Constant
Bit rate : 448 Kbps
Channel(s) : 6 channels
Channel positions : Front: L C R, Side: L R, LFE
Sampling rate : 48.0 KHz
Bit depth : 16 bits
Compression mode : Lossy
Delay relative to video : -5ms
Stream size : 368 MiB (20%)
Title : Eng Ac3 5.1
Language : English
Default : No
Forced : No

Menu
00:00:00.000 : :Chapter 01
00:07:58.394 : :Chapter 02
00:15:32.890 : :Chapter 03
00:20:09.583 : :Chapter 04
00:27:17.135 : :Chapter 05
00:34:29.650 : :Chapter 06
00:46:10.267 : :Chapter 07
00:50:31.653 : :Chapter 08
00:59:01.204 : :Chapter 09
01:03:12.914 : :Chapter 10
01:10:51.413 : :Chapter 11
01:14:35.888 : :Chapter 12
01:25:31.376 : :Chapter 13
01:28:49.574 : :Chapter 14
01:34:29.246 : :Chapter 15
01:43:31.830 : :Chapter 16





Files:

Men in Black International (2019).h264.ita.eng.sub.eng-MIRCrew
  • leggete.txt (0.0 KB)
  • Men in Black International (2019).h264.ita.eng.sub.eng-MIRCrew.eng.idx (66.3 KB)
  • Men in Black International (2019).h264.ita.eng.sub.eng-MIRCrew.eng.sub (9.7 MB)
  • Men in Black International (2019).h264.ita.eng.sub.eng-MIRCrew.mkv (1.8 GB)
  • Men in Black International (2019).h264.ita.eng.sub.eng-MIRCrew.srt (2.0 KB)
  • MIRCrew.png (182.3 KB)

There are currently no comments. Feel free to leave one :)

Code:

  • udp://tracker.coppersurfer.tk:6969/announce
  • udp://tracker.torrent.eu.org:451/announce
  • udp://tracker.leechers-paradise.org:6969/announce
  • udp://tracker.opentrackr.org:1337/announce
  • udp://9.rarbg.to:2730/announce
  • udp://9.rarbg.com:2710/announce
  • udp://9.rarbg.me:2780/announce
  • udp://tracker.coppersurfer.tk:80/announce
  • udp://tracker.pirateparty.gr:6969/announce
  • udp://tracker.eddie4.nl:6969/announce
  • udp://shadowshq.yi.org:6969/announce
  • udp://shadowshq.eddie4.nl:6969/announce
  • udp://inferno.demonoid.pw:3391/announce
  • udp://eddie4.nl:6969/announce
  • udp://62.138.0.158:6969/announce
/08/e7/ff/08e7ffd6a1ad8052c7c702273b643766.js'>