Midsommar.2019.1080p.WEB-DL.H264.AC3.LLG

  • Category Movies
  • Type HD
  • Language English
  • Total size 2.4 GB
  • Uploaded By LifeLongg
  • Downloads 109
  • Last checked 2 hours ago
  • Date uploaded 19 hours ago
  • Seeders 23
  • Leechers 14

Midsommar

HorrorDrama

A young couple travels to Sweden to visit their friend’s rural hometown and attend its mid-summer festival. What begins as an idyllic retreat quickly descends into an increasingly violent and bizarre competition at the hands of a pagan cult.

Infohash : 404E5BB6AD7DC37118E15F1AF862AFBFD3EC97A8

Quote:





******************************Thumbnail:**********************




******************************Screenshots:********************

Screenshot 1

Screenshot 2

Screenshot 3

Screenshot 4

Screenshot 5

Screenshot 6

Screenshot 7

Screenshot 8

Screenshot 9

Screenshot 0


***************************************************************
18+.Midsommar.2019.1080p.WEB-DL.H264.AC3.LLG.mp4
Format : MPEG-4
Format profile : Base Media
Codec ID : isom (isom/iso2/avc1/mp41)
File size : 2.39 GiB
Duration : 2 h 27 min
Overall bit rate mode : Variable
Overall bit rate : 2 328 kb/s

Video
ID : 1
Format : AVC
Format/Info : Advanced Video Codec
Format profile : [email protected]
Format settings : CABAC / 1 Ref Frames
Format settings, CABAC : Yes
Format settings, Reference frames : 1 frame
Codec ID : avc1
Codec ID/Info : Advanced Video Coding
Duration : 2 h 27 min
Bit rate mode : Variable
Bit rate : 1 940 kb/s
Maximum bit rate : 6 000 kb/s
Width : 1 920 pixels
Height : 958 pixels
Display aspect ratio : 2.008
Frame rate mode : Constant
Frame rate : 23.976 (23976/1000) FPS
Color space : YUV
Chroma subsampling : 4:2:0
Bit depth : 8 bits
Scan type : Progressive
Bits/(Pixel*Frame) : 0.044
Stream size : 1.99 GiB (83%)
Language : English

Audio
ID : 2
Format : AC-3
Format/Info : Audio Coding 3
Commercial name : Dolby Digital
Codec ID : ac-3
Duration : 2 h 27 min
Bit rate mode : Constant
Bit rate : 384 kb/s
Channel(s) : 6 channels
Channel layout : L R C LFE Ls Rs
Sampling rate : 48.0 kHz
Frame rate : 31.250 FPS (1536 SPF)
Bit depth : 16 bits
Compression mode : Lossy
Stream size : 404 MiB (16%)
Language : English
Service kind : Complete Main
Default : Yes
Alternate group : 1



***************************************************************



Files:

18+.Midsommar.2019.1080p.WEB-DL.H264.AC3.LLG
  • [email protected]_V1_UX182_CR0,0,182,268_AL__QL50.jpg (9.1 KB)
  • SAMPLE.ts (8.5 MB)
  • 18+.Midsommar.2019.1080p.WEB-DL.H264.AC3.LLG.mp4 (2.4 GB)

There are currently no comments. Feel free to leave one :)

Code:

  • udp://tracker.openbittorrent.com:80/announce
  • udp://tracker.opentrackr.org:1337/announce
  • udp://exodus.desync.com:6969/announce
  • udp://tracker.coppersurfer.tk:6969/announce
  • udp://tracker.iamhansen.xyz:2000/announce
  • udp://tracker.opentrackr.org:1337/announce
  • udp://open.demonii.si:1337/announce
  • udp://tracker.pirateparty.gr:6969/announce
/08/e7/ff/08e7ffd6a1ad8052c7c702273b643766.js'>