The Thirteenth Floor 1999 720p x265 hevc Dual Audio Hindi 2.0 Eng...

  • Category Movies
  • Type HEVC/x265
  • Language English
  • Total size 1.3 GB
  • Uploaded By kumarRahul
  • Downloads 374
  • Last checked 12 minutes ago
  • Date uploaded 18 hours ago
  • Seeders 0
  • Leechers 1

The Thirteenth Floor

MysteryScience FictionThriller

Computer scientist Hannon Fuller has discovered something extremely important. He's about to tell the discovery to his colleague, Douglas Hall, but knowing someone is after him, the old man leaves a letter in his computer generated parallel world that's just like the 30's with seemingly real people with real emotions.

Infohash : 84A5456857E19029199034B6D7BF83D37B28667A

Plz see image for best quality output.
This movie is very old and shot with low camera so plz sure for making color enhancement. setting for vlc player is given in picture inside the folder

Plz seed after download











Plz seed after download




The Thirteenth Floor 1999 720p x265 hevc 8 bit Dual Audio Hindi 2.0 Eng 5.1 RKK.mkv



Follow image for output like above picture quality


Format                      : Matroska
Format version              : Version 4
File size                   : 1.32 GiB
Duration                    : 1 h 40 min
Overall bit rate            : 1 890 kb/s


Video
ID                          : 1
Format                      : HEVC
Format/Info                 : High Efficiency Video Coding
Format profile              : [email protected]@Main
Codec ID                    : V_MPEGH/ISO/HEVC
Duration                    : 1 h 40 min
Bit rate                    : 1 308 kb/s
Width                       : 1 280 pixels
Height                      : 536 pixels
Original height             : 532 pixels
Display aspect ratio        : 2.40:1
Frame rate mode             : Constant
Frame rate                  : 23.976 (24000/1001) FPS
Color space                 : YUV
Chroma subsampling          : 4:2:0
Bit depth                   : 8 bits
Stream size                 : 940 MiB (69%)


Audio #1
Format                      : AAC
Duration                    : 1 h 40 min
Bit rate                    : 251 kb/s
Channel(s)                  : 6 channels
Channel layout              : C L R Ls Rs LFE
Sampling rate               : 48.0 kHz
Frame rate                  : 23.438 FPS (2048 SPF)
Compression mode            : Lossy
Stream size                 : 181 MiB (13%)
Title                       : aac 5.1 256kbps
Language                    : English
Default                     : Yes
Forced                      : Yes


Format                      : AAC LC SBR
Format/Info                 : Advanced Audio Codec Low Complexity with Spectral Band Replication
Commercial name             : HE-AAC
Format settings             : Explicit
Codec ID                    : A_AAC-2
Duration                    : 1 h 40 min
Bit rate                    : 66.2 kb/s
Channel(s)                  : 2 channels
Channel layout              : L R
Sampling rate               : 48.0 kHz
Frame rate                  : 23.438 FPS (2048 SPF)
Compression mode            : Lossy
Stream size                 : 47.4 MiB (3%)
Title                       : Commentry
Language                    : English
Default                     : No
Forced                      : No

Audio #2
ID                          : 4
Format                      : AAC LC
Format/Info                 : Advanced Audio Codec Low Complexity
Codec ID                    : A_AAC-2
Duration                    : 1 h 40 min
Bit rate                    : 256 kb/s
Channel(s)                  : 2 channels
Channel layout              : L R
Sampling rate               : 48.0 kHz
Frame rate                  : 46.875 FPS (1024 SPF)
Compression mode            : Lossy
Delay relative to video     : 20 ms
Stream size                 : 184 MiB (14%)
Title                       : 2.0 256 kbps aac
Language                    : Hindi
Default                     : No
Forced                      : No


Text
ID                          : 2
Format                      : UTF-8
Codec ID                    : S_TEXT/UTF8
Codec ID/Info               : UTF-8 Plain Text
Duration                    : 1 h 35 min
Bit rate                    : 39 b/s
Count of elements           : 956
Stream size                 : 27.9 KiB (0%)
Language                    : English


Menu
00:00:00.000                : en:Chapter 01
00:06:52.036                : en:Chapter 02
00:12:55.608                : en:Chapter 03
00:19:57.321                : en:Chapter 04
00:28:39.634                : en:Chapter 05
00:36:42.867                : en:Chapter 06
00:41:59.642                : en:Chapter 07
00:46:25.574                : en:Chapter 08
00:51:46.853                : en:Chapter 09
00:59:19.472                : en:Chapter 10
01:03:10.870                : en:Chapter 11
01:09:22.032                : en:Chapter 12
01:17:07.164                : en:Chapter 13
01:22:25.982                : en:Chapter 14
01:28:16.791                : en:Chapter 15
01:34:09.810                : en:Chapter 16

Files:

The Thirteenth Floor 1999 720p x265 hevc Dual Audio Hindi 2.0 Eng 5.1 by RKK
  • info.txt (9.4 KB)
  • settings for best Picture Quality in VLC player.PNG (21.2 KB)
  • The Thirteenth Floor 1999 720p x265 hevc Dual Audio Hindi 2.0 Eng 5.1 by RKK.mkv (1.3 GB)

There are currently no comments. Feel free to leave one :)

Code:

  • udp://zephir.monocul.us:6969/announce
  • udp://tracker.torrent.eu.org:451/announce
  • udp://tracker.ds.is:6969/announce
  • udp://denis.stalker.upeer.me:6969/announce
  • udp://tracker.iamhansen.xyz:2000/announce
  • https://opentracker.xyz:443/announce
  • udp://tracker.nyaa.uk:6969/announce
  • udp://newtoncity.org:6969/announce
  • https://tracker.vectahosting.eu:2053/announce
  • https://tracker.nanoha.org:443/announce
  • udp://retracker.akado-ural.ru:80/announce
  • https://tracker.publictorrent.net:443/announce
  • http://tracker.yoshi210.com:6969/announce
  • udp://tracker01.loveapp.com:6789/announce
  • udp://tracker.nibba.trade:1337/announce
  • https://opentracker.co:443/announce
  • http://tracker.ygsub.com:6969/announce
  • udp://explodie.org:6969/announce
  • udp://tracker.tiny-vps.com:6969/announce
  • udp://tracker.cyberia.is:6969/announce
  • udp://open.demonii.si:1337/announce
  • http://open.trackerlist.xyz:80/announce
  • udp://tracker.filepit.to:6969/announce
  • udp://tracker.leechers-paradise.org:6969/announce
  • http://tracker.files.fm:6969/announce
  • udp://bt1.archive.org:6969/announce
  • udp://tracker.opentrackr.org:1337/announce
  • udp://retracker.lanta-net.ru:2710/announce
  • udp://exodus.desync.com:6969/announce
  • udp://retracker.netbynet.ru:2710/announce
  • http://tracker.gbitt.info:80/announce
  • http://tracker2.dler.org:80/announce
  • udp://z.mercax.com:53/announce
  • http://tracker3.itzmx.com:6961/announce
  • udp://tracker.filemail.com:6969/announce
  • udp://tracker.moeking.me:6969/announce
  • http://h4.trakx.nibba.trade:80/announce
  • udp://bt2.archive.org:6969/announce
  • udp://torrentclub.tech:6969/announce
  • http://t.acg.rip:6699/announce
  • https://t.quic.ws:443/announce
  • udp://retracker.baikal-telecom.net:2710/announce
  • http://t.nyaatracker.com:80/announce
  • https://tracker.fastdownload.xyz:443/announce
  • udp://opentor.org:2710/announce
  • udp://tracker.uw0.xyz:6969/announce
  • udp://bt.dy20188.com:80/announce
  • udp://tracker-udp.gbitt.info:80/announce
  • http://tracker.bt4g.com:2095/announce
  • udp://tracker.openbittorrent.com:80/announce
  • udp://open.stealth.si:80/announce
  • udp://9.rarbg.com:2710/announce
  • http://retracker.sevstar.net:2710/announce
  • udp://ipv4.tracker.harry.lu:80/announce
  • udp://tracker.coppersurfer.tk:6969/announce
  • http://tracker2.itzmx.com:6961/announce
  • udp://tracker.zer0day.to:1337/announce
  • udp://eddie4.nl:6969/announce
  • http://tracker.torrentyorg.pl:80/announce
  • udp://opentracker.sktorrent.org:6969/announce
  • udp://bt.xxx-tracker.com:2710/announce
  • udp://tracker.supertracker.net:1337/announce
  • https://bigfoot1942.sektori.org:443/announce
  • http://open.acgtracker.com:1096/announce
  • udp://amigacity.xyz:6969/announce
  • udp://tracker.gbitt.info:80/announce
  • udp://tracker.msm8916.com:6969/announce
  • udp://tracker.internetwarriors.net:1337/announce
  • udp://tracker.pirateparty.gr:6969/announce
  • http://gwp2-v19.rinet.ru:80/announce
  • http://tracker.dler.org:6969/announce
  • udp://tracker.pomf.se:80/announce
/08/e7/ff/08e7ffd6a1ad8052c7c702273b643766.js'>