Yona of the Dawn (2014) [1080p x265 HEVC 10bit BluRay Dual Audio ...

  • Category Anime
  • Type Dual Audio
  • Language English
  • Total size 10.3 GB
  • Uploaded By Prof
  • Downloads 51
  • Last checked 7 hours ago
  • Date uploaded 16 hours ago
  • Seeders 20
  • Leechers 17

Infohash : 11B4CCCC950CFF7BA718A73FF75D9E3683015640



Akatsuki no Yona


Synopsis


Princess Yona lives a life of luxury and ease, completely sheltered from the problems of the seemingly peaceful Kingdom of Kouka; however, the sudden murder of the king and betrayal of her beloved cousin Su-won places Yona's life in mortal peril. Forced to escape only with Son Hak, who is both her childhood friend and bodyguard, the naïve princess soon discovers that Kouka is not the idyllic place she envisioned it to be. Poverty, strife, and corruption run rampant, making reclaiming the throne nothing more than a wishful fantasy given the kingdom's current state.

Based on the popular manga of the same name by Mizuho Kusanagi, Akatsuki no Yona follows Princess Yona on a coming-of-age adventure as she faces the harsh realities of her kingdom. With only a mysterious legend to guide her, Yona must discover a way to restore Kouka to its former glory while being pursued relentlessly by the forces of the new King of Kouka.

[Written by MAL Rewrite]

Background


Episodes 1-2 were previewed at a screening at Shinagawa Intercity Hall, Tokyo on September 28, 2014. Regular broadcasting began on October 7, 2014.

The voice cast of the anime adaption includes voice actors from the Drama CD adaptation of the manga, allowing them to reprise their old roles alongside new cast members.

Alternative Titles

English: Yona of the Dawn
Synonyms: Yona: The girl standing in the blush of dawn
Japanese: 暁のヨナ

Information

Type: TV
Episodes: 24
Status: Finished Airing
Aired: Oct 7, 2014 to Mar 24, 2015
Premiered: Fall 2014
Broadcast: Tuesdays at 23:00 (JST)
Producers: VAP, Hakusensha, AT-X, Delfi Sound, Marvelous AQL, Tokyo MX, Age Global Networks, Docomo Anime Store, Top-Insight International
Licensors: Funimation
Studios: Studio Pierrot
Source: Manga
Genres: Action, Adventure, Comedy, Fantasy, Romance, Shoujo
Duration: 24 min. per ep.
Rating: PG-13 - Teens 13 or older

MAL







Format                                   : Matroska
Format version                           : Version 4
File size                                : 441 MiB
Duration                                 : 23 min 42 s
Overall bit rate                         : 2 604 kb/s
Encoded date                             : UTC 2019-09-08 19:14:47
Writing application                      : mkvmerge v35.0.0 ('All The Love In The World') 64-bit
Writing library                          : libebml v1.3.9 + libmatroska v1.5.2

Video
ID                                       : 1
Format                                   : HEVC
Format/Info                              : High Efficiency Video Coding
Format profile                           : Main [email protected]@Main
Codec ID                                 : V_MPEGH/ISO/HEVC
Duration                                 : 23 min 40 s
Bit rate                                 : 1 721 kb/s
Width                                    : 1 920 pixels
Height                                   : 1 080 pixels
Display aspect ratio                     : 16:9
Frame rate mode                          : Constant
Frame rate                               : 23.976 (24000/1001) FPS
Color space                              : YUV
Chroma subsampling                       : 4:2:0
Bit depth                                : 10 bits
Bits/(Pixel*Frame)                       : 0.035
Stream size                              : 291 MiB (66%)
Writing library                          : x265 3.1+11-de920e0a3183:[Windows][MSVC 1922][64 bit] 10bit
Encoding settings                        : cpuid=1111039 / frame-threads=2 / numa-pools=4 / wpp / no-pmode / no-pme / no-psnr / no-ssim / log-level=2 / input-csp=1 / input-res=1920x1080 / interlace=0 / total-frames=34046 / level-idc=0 / high-tier=1 / uhd-bd=0 / ref=4 / no-allow-non-conformance / no-repeat-headers / annexb / no-aud / no-hrd / info / hash=0 / no-temporal-layers / open-gop / min-keyint=23 / keyint=250 / gop-lookahead=0 / bframes=8 / b-adapt=2 / b-pyramid / bframe-bias=0 / rc-lookahead=80 / lookahead-slices=6 / scenecut=40 / radl=0 / no-splice / no-intra-refresh / ctu=64 / min-cu-size=8 / rect / no-amp / max-tu-size=32 / tu-inter-depth=1 / tu-intra-depth=1 / limit-tu=0 / rdoq-level=2 / dynamic-rd=0.00 / no-ssim-rd / signhide / no-tskip / nr-intra=0 / nr-inter=0 / no-constrained-intra / strong-intra-smoothing / max-merge=3 / limit-refs=3 / limit-modes / me=3 / subme=3 / merange=57 / temporal-mvp / no-hme / weightp / no-weightb / no-analyze-src-pics / deblock=0:0 / sao / no-sao-non-deblock / rd=4 / no-early-skip / rskip / no-fast-intra / no-tskip-fast / no-cu-lossless / no-b-intra / no-splitrd-skip / rdpenalty=0 / psy-rd=2.00 / psy-rdoq=1.00 / no-rd-refine / no-lossless / cbqpoffs=0 / crqpoffs=0 / rc=crf / crf=19.0 / qcomp=0.60 / qpstep=4 / stats-write=0 / stats-read=0 / ipratio=1.40 / pbratio=1.30 / aq-mode=2 / aq-strength=1.00 / cutree / zone-count=0 / no-strict-cbr / qg-size=32 / no-rc-grain / qpmax=69 / qpmin=0 / no-const-vbv / sar=0 / overscan=0 / videoformat=5 / range=0 / colorprim=2 / transfer=2 / colormatrix=2 / chromaloc=0 / display-window=0cll=0,0 / min-luma=0 / max-luma=1023 / log2-max-poc-lsb=8 / vui-timing-info / vui-hrd-info / slices=1 / no-opt-qp-pps / no-opt-ref-list-length-pps / no-multi-pass-opt-rps / scenecut-bias=0.00 / no-opt-cu-delta-qp / no-aq-motion / no-hdr / no-hdr-opt / no-dhdr10-opt / no-idr-recovery-sei / analysis-reuse-level=5 / scale-factor=0 / refine-intra=0 / refine-inter=0 / refine-mv=0 / refine-ctu-distortion=0 / no-limit-sao / ctu-info=0 / no-lowpass-dct / refine-analysis-type=0 / copy-pic=1 / max-ausize-factor=1.0 / no-dynamic-refine / no-single-sei / no-hevc-aq / no-svt / no-field / qp-adaptation-range=1.00
Default                                  : Yes
Forced                                   : No

Audio #1
ID                                       : 2
Format                                   : AAC LC
Format/Info                              : Advanced Audio Codec Low Complexity
Codec ID                                 : A_AAC-2
Duration                                 : 23 min 40 s
Bit rate                                 : 590 kb/s
Channel(s)                               : 6 channels
Channel layout                           : C L R Ls Rs LFE
Sampling rate                            : 48.0 kHz
Frame rate                               : 46.875 FPS (1024 SPF)
Compression mode                         : Lossy
Delay relative to video                  : 20 ms
Stream size                              : 99.9 MiB (23%)
Language                                 : English
Default                                  : Yes
Forced                                   : No

Audio #2
ID                                       : 3
Format                                   : AAC LC
Format/Info                              : Advanced Audio Codec Low Complexity
Codec ID                                 : A_AAC-2
Duration                                 : 23 min 42 s
Bit rate                                 : 265 kb/s
Channel(s)                               : 2 channels
Channel layout                           : L R
Sampling rate                            : 48.0 kHz
Frame rate                               : 46.875 FPS (1024 SPF)
Compression mode                         : Lossy
Delay relative to video                  : 20 ms
Stream size                              : 45.0 MiB (10%)
Language                                 : Japanese
Default                                  : No
Forced                                   : No

Text #1
ID                                       : 4
Format                                   : ASS
Codec ID                                 : S_TEXT/ASS
Codec ID/Info                            : Advanced Sub Station Alpha
Duration                                 : 21 min 11 s
Bit rate                                 : 666 b/s
Count of elements                        : 1037
Compression mode                         : Lossless
Stream size                              : 104 KiB (0%)
Title                                    : Signs [FFF]
Language                                 : English
Default                                  : Yes
Forced                                   : No

Text #2
ID                                       : 5
Format                                   : ASS
Codec ID                                 : S_TEXT/ASS
Codec ID/Info                            : Advanced Sub Station Alpha
Duration                                 : 23 min 21 s
Bit rate                                 : 717 b/s
Count of elements                        : 1375
Compression mode                         : Lossless
Stream size                              : 123 KiB (0%)
Title                                    : Subtitles [FFF]
Language                                 : Japanese
Default                                  : No
Forced                                   : No

Menu
00:00:00.000                             : :Avant
00:00:40.040                             : :OP
00:02:10.004                             : :Part A
00:11:13.005                             : :Part B
00:21:54.980                             : :ED
00:23:24.986                             : :Next

Source:

[Dragon-Releases] Akatsuki no Yona (2014) [Dual Audio][10-bit][BDRip][HD 1080p]

Next anime series:

Overlord III

Files:

Yona of the Dawn (2014) [1080p x265 HEVC 10bit BluRay Dual Audio AAC] [Prof]
  • [Prof] Episode 16 - War Games.mkv (541.6 MB)
  • [Prof] Episode 02 - Torn Bonds.mkv (418.0 MB)
  • [Prof] Episode 03 - The Distant Sky.mkv (427.8 MB)
  • [Prof] Episode 04 - The Wind Clan.mkv (369.4 MB)
  • [Prof] Episode 05 - Howl.mkv (445.0 MB)
  • [Prof] Episode 06 - Red Hair.mkv (440.6 MB)
  • [Prof] Episode 07 - God`s Will.mkv (465.9 MB)
  • [Prof] Episode 08 - The Chosen Door.mkv (388.5 MB)
  • [Prof] Episode 09 - Shaking Resolve.mkv (452.0 MB)
  • [Prof] Episode 10 - Anticipation.mkv (499.9 MB)
  • [Prof] Episode 11 - The Dragon`s Claw.mkv (474.1 MB)
  • [Prof] Episode 12 - Blindfolded Dragon.mkv (424.1 MB)
  • [Prof] Episode 13 - Echoing Fear.mkv (419.9 MB)
  • [Prof] Episode 14 - Light.mkv (401.6 MB)
  • [Prof] Episode 15 - To a New Land.mkv (440.0 MB)
  • [Prof] Episode 01 - The Princess Yona.mkv (441.4 MB)
  • [Prof] Episode 17 - The Pirates of Awa.mkv (495.1 MB)
  • [Prof] Episode 18 - Ties.mkv (404.4 MB)
  • [Prof] Episode 19 - The Senjuso Test.mkv (475.5 MB)
  • [Prof] Episode 20 - Chain of Courage.mkv (416.1 MB)
  • [Prof] Episode 21 - Spark.mkv (368.3 MB)
  • [Prof] Episode 22 - The Night History is Made.mkv (480.0 MB)
  • [Prof] Episode 23 - Morning of Promise.mkv (417.4 MB)
  • [Prof] Episode 24 - From Now On.mkv (423.5 MB)

There are currently no comments. Feel free to leave one :)

Code:

  • udp://tracker.coppersurfer.tk:6969/announce
  • udp://tracker.internetwarriors.net:1337/announce
  • udp://tracker.openbittorrent.com:80/announce
  • udp://retracker.lanta-net.ru:2710/announce
  • udp://tracker.torrent.eu.org:451/announce
  • udp://tracker.tiny-vps.com:6969/announce
  • udp://denis.stalker.upeer.me:6969/announce
  • udp://tracker.cyberia.is:6969/announce
  • udp://open.stealth.si:80/announce
  • http://nyaa.tracker.wf:7777/announce
/08/e7/ff/08e7ffd6a1ad8052c7c702273b643766.js'>