Crawl.2019.1080P.Web- X264- Obey[TGx]

  • Category Movies
  • Type HD
  • Language English
  • Total size 2.3 GB
  • Uploaded By 0bey
  • Downloads 93
  • Last checked 58 minutes ago
  • Date uploaded 11 hours ago
  • Seeders 27
  • Leechers 9

Crawl

ThrillerActionHorror

While struggling to save her father during a Category 5 hurricane, a young woman finds herself trapped inside a flooding house and fighting for her life against Florida’s most savage and feared predators.

Infohash : A71A087258D7F01E291FDCE088E4B39D479C20B9

Make sure your Uploads are provided by Obey


https://torrentgalaxy.org


https://www.imdb.com/title/tt8364368/


Complete name
Crawl.2019.1080P.Web- X264- Obey[TGx]
Format : Matroska
Format version : Version 4
File size : 2.32 GiB
Duration : 1 h 27 min
Overall bit rate : 3 796 kb/s
Movie name : Crawl.2019.1080p.WEB-x264-Obey
Encoded date : UTC 2019-09-24 23:57:50
Writing application : mkvmerge v32.0.0 ('Astral Progressions') 64-bit
Writing library : libebml v1.3.7 + libmatroska v1.5.0 / Lavf58.20.100

Video
ID : 1
Format : AVC
Format/Info : Advanced Video Codec
Format profile : [email protected]
Format settings : CABAC / 4 Ref Frames
Format settings, CABAC : Yes
Format settings, Reference frames : 4 frames
Codec ID : V_MPEG4/ISO/AVC
Duration : 1 h 27 min
Bit rate : 3 634 kb/s
Width : 1 912 pixels
Height : 790 pixels
Display aspect ratio : 2.40:1
Frame rate mode : Constant
Frame rate : 23.976 (24000/1001) FPS
Color space : YUV
Chroma subsampling : 4:2:0
Bit depth : 8 bits
Scan type : Progressive
Bits/(Pixel*Frame) : 0.100
Stream size : 2.22 GiB (96%)
Writing library : x264 core 157 r2935 545de2f
Default : Yes
Forced : No
Color range : Limited
Color primaries : BT.709
Transfer characteristics : BT.709
Matrix coefficients : BT.709

Audio
ID : 2
Format : AAC LC
Format/Info : Advanced Audio Codec Low Complexity
Codec ID : A_AAC-2
Duration : 1 h 27 min
Bit rate : 160 kb/s
Channel(s) : 2 channels
Channel layout : L R
Sampling rate : 48.0 kHz
Frame rate : 46.875 FPS (1024 SPF)
Compression mode : Lossy
Delay relative to video : -21 ms
Stream size : 100 MiB (4%)
Title : Stereo
Language : English
Default : Yes
Forced : No






















Files:

Crawl.2019.1080P.Web- X264- Obey.mkv
  • Crawl.2019.1080P.Web- X264- Obey.mkv (2.3 GB)

There are currently no comments. Feel free to leave one :)

Code:

  • udp://tracker.coppersurfer.tk:6969/announce
  • udp://tracker.leechers-paradise.org:6969/announce
  • udp://exodus.desync.com:6969
  • udp://tracker.internetwarriors.net:1337/announce
  • udp://open.stealth.si:80/announce
  • udp://explodie.org:6969/announce
  • udp://tracker.opentrackr.org:1337/announce
  • udp://tracker.tiny-vps.com:6969/announce
  • udp://open.demonii.si:1337/announce
  • udp://tracker.torrent.eu.org:451/announce
  • udp://tracker.pirateparty.gr:6969/announce
  • udp://ipv4.tracker.harry.lu:80/announce
  • udp://tracker.cyberia.is:6969/announce
  • udp://denis.stalker.upeer.me:6969/announce
  • udp://9.rarbg.to:2790/announce
/08/e7/ff/08e7ffd6a1ad8052c7c702273b643766.js'>