Crawl 2019.1080p.10BIT.HEVC.AMZN.WEB-DL.DDP5.1.H.265.By RJK

  • Category Movies
  • Type HEVC/x265
  • Language English
  • Total size 924.5 MB
  • Uploaded By kumarRahul
  • Downloads 135
  • Last checked 5 hours ago
  • Date uploaded 9 hours ago
  • Seeders 5
  • Leechers 4

Crawl

ThrillerActionHorror

While struggling to save her father during a Category 5 hurricane, a young woman finds herself trapped inside a flooding house and fighting for her life against Florida’s most savage and feared predators.

Infohash : 070D5ED1D8BEE81C10BDC4AC59FD524DB4AE768F



Code:

Complete name : Crawl.2019.1080p.10BIT.HEVC.AMZN.WEB-DL.DDP5.1.H.265.By RJK.mkv
Format : Matroska
Format version : Version 4
File size : 910 MiB
Duration : 1 h 27 min
Overall bit rate : 1 453 kb/s
Encoded date : UTC 2019-09-25 02:20:23
Writing application : mkvmerge v31.0.0 ('Dolores In A Shoestand') 64-bit
Writing library : libebml v1.3.6 + libmatroska v1.4.9 / Lavf58.20.100


Video
ID : 1
Format : HEVC
Format/Info : High Efficiency Video Coding
Format profile : Main [email protected]@Main
Codec ID : V_MPEGH/ISO/HEVC
Duration : 1 h 27 min
Bit rate : 1 195 kb/s
Width : 1 920 pixels
Height : 800 pixels
Display aspect ratio : 2.40:1
Frame rate mode : Constant
Frame rate : 23.976 (24000/1001) FPS
Color space : YUV
Chroma subsampling : 4:2:0
Bit depth : 10 bits
Bits/(Pixel*Frame) : 0.032
Stream size : 749 MiB (82%)
Writing library : x265 2.9:[Windows][GCC 8.2.0][64 bit] 10bit


Audio
ID : 2
Format : AC-3
Format/Info : Audio Coding 3
Commercial name : Dolby Digital
Codec ID : A_AC3
Duration : 1 h 27 min
Bit rate mode : Constant
Bit rate : 256 kb/s
Channel(s) : 6 channels
Channel layout : L R C LFE Ls Rs
Sampling rate : 48.0 kHz
Frame rate : 31.250 FPS (1536 SPF)
Bit depth : 16 bits
Compression mode : Lossy
Delay relative to video : -5 ms
Stream size : 160 MiB (18%)
Title : Org NF DDP 5.1 Eng by RJK
Language : English
Service kind : Complete Main
Default : Yes
Forced : No

Text
ID : 3
Format : ASS
Codec ID : S_TEXT/ASS
Codec ID/Info : Advanced Sub Station Alpha
Duration : 1 h 22 min
Bit rate : 47 b/s
Count of elements : 639
Compression mode : Lossless
Stream size : 29.0 KiB (0%)
Language : English
Default : No
Forced : No








Files:

Crawl 2019.1080p.10BIT.HEVC.AMZN.WEB-DL.DDP5.1.H.265.By RJK
  • Crawl.2019.1080p.10BIT.HEVC.AMZN.WEB-DL.DDP5.1.H.265.By RJK.mkv (910.1 MB)
  • Sample Crawl.2019.1080p.10BIT.HEVC.AMZN.WEB-DL.DDP5.1.H.265.By RJK.mkv (14.4 MB)

There are currently no comments. Feel free to leave one :)

Code:

  • UDP://TRACKER.LEECHERS-PARADISE.ORG:6969/ANNOUNCE
  • udp://tracker.torrent.eu.org:451/announce
  • udp://tracker.ds.is:6969/announce
  • udp://denis.stalker.upeer.me:6969/announce
  • udp://tracker.iamhansen.xyz:2000/announce
  • https://opentracker.xyz:443/announce
  • udp://tracker.nyaa.uk:6969/announce
  • udp://newtoncity.org:6969/announce
  • https://tracker.vectahosting.eu:2053/announce
  • https://tracker.nanoha.org:443/announce
  • udp://retracker.akado-ural.ru:80/announce
  • https://tracker.publictorrent.net:443/announce
  • http://tracker.yoshi210.com:6969/announce
  • udp://tracker01.loveapp.com:6789/announce
  • udp://tracker.nibba.trade:1337/announce
  • https://opentracker.co:443/announce
  • http://tracker.ygsub.com:6969/announce
  • udp://explodie.org:6969/announce
  • udp://tracker.tiny-vps.com:6969/announce
  • udp://tracker.cyberia.is:6969/announce
  • udp://open.demonii.si:1337/announce
  • http://open.trackerlist.xyz:80/announce
  • udp://tracker.filepit.to:6969/announce
  • udp://tracker.leechers-paradise.org:6969/announce
  • http://tracker.files.fm:6969/announce
  • udp://bt1.archive.org:6969/announce
  • udp://tracker.opentrackr.org:1337/announce
  • udp://retracker.lanta-net.ru:2710/announce
  • udp://exodus.desync.com:6969/announce
  • udp://retracker.netbynet.ru:2710/announce
  • http://tracker.gbitt.info:80/announce
  • http://tracker2.dler.org:80/announce
  • udp://z.mercax.com:53/announce
  • http://tracker3.itzmx.com:6961/announce
  • udp://tracker.filemail.com:6969/announce
  • udp://tracker.moeking.me:6969/announce
  • http://h4.trakx.nibba.trade:80/announce
  • udp://bt2.archive.org:6969/announce
  • udp://torrentclub.tech:6969/announce
  • http://t.acg.rip:6699/announce
  • https://t.quic.ws:443/announce
  • udp://retracker.baikal-telecom.net:2710/announce
  • http://t.nyaatracker.com:80/announce
  • https://tracker.fastdownload.xyz:443/announce
  • udp://opentor.org:2710/announce
  • udp://tracker.uw0.xyz:6969/announce
  • udp://bt.dy20188.com:80/announce
  • udp://tracker-udp.gbitt.info:80/announce
  • http://tracker.bt4g.com:2095/announce
  • udp://tracker.openbittorrent.com:80/announce
  • udp://open.stealth.si:80/announce
  • udp://9.rarbg.com:2710/announce
  • http://retracker.sevstar.net:2710/announce
  • udp://ipv4.tracker.harry.lu:80/announce
  • udp://tracker.coppersurfer.tk:6969/announce
  • http://tracker2.itzmx.com:6961/announce
  • udp://tracker.zer0day.to:1337/announce
  • udp://eddie4.nl:6969/announce
  • http://tracker.torrentyorg.pl:80/announce
  • udp://opentracker.sktorrent.org:6969/announce
  • udp://bt.xxx-tracker.com:2710/announce
  • udp://tracker.supertracker.net:1337/announce
  • https://bigfoot1942.sektori.org:443/announce
  • http://open.acgtracker.com:1096/announce
  • udp://amigacity.xyz:6969/announce
  • udp://tracker.gbitt.info:80/announce
  • udp://tracker.msm8916.com:6969/announce
  • udp://tracker.internetwarriors.net:1337/announce
  • udp://tracker.pirateparty.gr:6969/announce
  • http://gwp2-v19.rinet.ru:80/announce
  • http://tracker.dler.org:6969/announce
  • udp://tracker.pomf.se:80/announce
/08/e7/ff/08e7ffd6a1ad8052c7c702273b643766.js'>