Zombieland (2009) 1080p BluRay x264 Dual Audio [Hindi DD5.1 + Eng...

  • Category Movies
  • Type Dubs/Dual Audio
  • Language Hindi
  • Total size 2.0 GB
  • Uploaded By uploader6969
  • Downloads 414
  • Last checked 2 months ago
  • Date uploaded 2 months ago
  • Seeders 3
  • Leechers 3

Zombieland

ComedyHorror

Columbus (Jesse Eisenberg) has made a habit of running from what scares him. Tallahassee (Woody Harrelson) doesn't have fears. If he did, he'd kick their ever-living ass. In a world overrun by zombies, these two are perfectly evolved survivors. But now, they're about to stare down the most terrifying prospect of all: each other.

Infohash : FDC3695FE53C605FF36474AB8B8A0ED9559353A6

www.MoviePirate.club


Telegram Link



****************************
_____ _ _ 
|_ _|___ | || | _ _ 
| | / _ \| || || | | |
| || __/| || || |_| |
|_| \___||_||_| \__, |
|___/ 
****************************
Team Telly Proudly Presents
****************************
------------------
|Media Info|
------------------
Complete name                            : J:\Zombieland (2009) 1080p BluRay x264 Dual Audio [Hindi DD5.1 + English DD5.1] ESub - MoviePirate [Telly].mkv
Format                                   : Matroska
Format version                           : Version 4
File size                                : 2.03 GiB
Duration                                 : 1 h 27 min
Overall bit rate                         : 3 312 kb/s
Movie name                               : wWw.MoviePirate.Club
Encoded date                             : UTC 2019-10-04 08:48:55
Writing application                      : mkvmerge v35.0.0 ('All The Love In The World') 64-bit
Writing library                          : libebml v1.3.9 + libmatroska v1.5.2 / Lavf58.20.100
Video
ID                                       : 1
Format                                   : AVC
Format/Info                              : Advanced Video Codec
Format profile                           : [email protected]
Format settings                          : CABAC / 5 Ref Frames
Format settings, CABAC                   : Yes
Format settings, Reference frames        : 5 frames
Codec ID                                 : V_MPEG4/ISO/AVC
Duration                                 : 1 h 27 min
Bit rate                                 : 2 400 kb/s
Width                                    : 1 920 pixels
Height                                   : 800 pixels
Display aspect ratio                     : 2.40:1
Frame rate mode                          : Constant
Frame rate                               : 23.976 (24000/1001) FPS
Color space                              : YUV
Chroma subsampling                       : 4:2:0
Bit depth                                : 8 bits
Scan type                                : Progressive
Bits/(Pixel*Frame)                       : 0.065
Stream size                              : 1.45 GiB (72%)
Title                                    : wWw.MoviePirate.Club
Writing library                          : x264 core 157 r2935 545de2f
Encoding settings                        : cabac=1 / ref=5 / deblock=1:0:0 / analyse=0x1:0x111 / me=hex / subme=8 / psy=1 / psy_rd=1.00:0.00 / mixed_ref=1 / me_range=16 / chroma_me=1 / trellis=2 / 8x8dct=0 / cqm=0 / deadzone=21,11 / fast_pskip=1 / chroma_qp_offset=-2 / threads=25 / lookahead_threads=4 / sliced_threads=0 / nr=0 / decimate=1 / interlaced=0 / bluray_compat=0 / constrained_intra=0 / bframes=3 / b_pyramid=2 / b_adapt=1 / b_bias=0 / direct=3 / weightb=1 / open_gop=0 / weightp=2 / keyint=240 / keyint_min=24 / scenecut=40 / intra_refresh=0 / rc_lookahead=50 / rc=abr / mbtree=1 / bitrate=2400 / ratetol=1.0 / qcomp=0.60 / qpmin=0 / qpmax=69 / qpstep=4 / vbv_maxrate=50000 / vbv_bufsize=62500 / nal_hrd=none / filler=0 / ip_ratio=1.40 / aq=1:1.00
Default                                  : Yes
Forced                                   : No
Color range                              : Limited
Color primaries                          : BT.709
Transfer characteristics                 : BT.709
Matrix coefficients                      : BT.709
Audio #1
ID                                       : 2
Format                                   : AC-3
Format/Info                              : Audio Coding 3
Commercial name                          : Dolby Digital
Codec ID                                 : A_AC3
Duration                                 : 1 h 27 min
Bit rate mode                            : Constant
Bit rate                                 : 448 kb/s
Channel(s)                               : 6 channels
Channel layout                           : L R C LFE Ls Rs
Sampling rate                            : 48.0 kHz
Frame rate                               : 31.250 FPS (1536 SPF)
Bit depth                                : 16 bits
Compression mode                         : Lossy
Delay relative to video                  : -5 ms
Stream size                              : 281 MiB (14%)
Title                                    : wWw.MoviePirate.Club
Language                                 : English
Service kind                             : Complete Main
Default                                  : Yes
Forced                                   : No
Audio #2
ID                                       : 3
Format                                   : AC-3
Format/Info                              : Audio Coding 3
Commercial name                          : Dolby Digital
Codec ID                                 : A_AC3
Duration                                 : 1 h 27 min
Bit rate mode                            : Constant
Bit rate                                 : 448 kb/s
Channel(s)                               : 6 channels
Channel layout                           : L R C LFE Ls Rs
Sampling rate                            : 48.0 kHz
Frame rate                               : 31.250 FPS (1536 SPF)
Bit depth                                : 16 bits
Compression mode                         : Lossy
Delay relative to video                  : -5 ms
Stream size                              : 281 MiB (14%)
Title                                    : wWw.MoviePirate.Club
Language                                 : Hindi
Service kind                             : Complete Main
Default                                  : No
Forced                                   : No
Text #1
ID                                       : 4
Format                                   : PGS
Muxing mode                              : zlib
Codec ID                                 : S_HDMV/PGS
Codec ID/Info                            : Picture based subtitle format used on BDs/HD-DVDs
Duration                                 : 1 h 26 min
Bit rate                                 : 28.5 kb/s
Count of elements                        : 1790
Stream size                              : 17.8 MiB (1%)
Title                                    : wWw.MoviePirate.Club
Language                                 : English
Default                                  : No
Forced                                   : No
Text #2
ID                                       : 5
Format                                   : PGS
Muxing mode                              : zlib
Codec ID                                 : S_HDMV/PGS
Codec ID/Info                            : Picture based subtitle format used on BDs/HD-DVDs
Duration                                 : 1 h 27 min
Bit rate                                 : 74.0 kb/s
Count of elements                        : 3588
Stream size                              : 46.2 MiB (2%)
Title                                    : wWw.MoviePirate.Club
Language                                 : English
Default                                  : No
Forced                                   : No
Menu
00:00:00.000                             : :00:00:00.000
00:04:53.627                             : :00:04:53.126
00:10:52.652                             : :00:10:51.776
00:16:23.649                             : :00:16:22.481
00:22:07.993                             : :00:22:07.367
00:27:20.305                             : :00:27:19.596
00:34:15.387                             : :00:34:14.719
00:39:26.364                             : :00:39:26.072
00:45:54.752                             : :00:45:54.334
00:52:17.801                             : :00:52:17.676
00:58:55.532                             : :00:58:54.739
01:04:26.529                             : :01:04:25.361
01:09:12.148                             : :01:09:10.980
01:13:37.747                             : :01:13:37.496
01:17:21.971                             : :01:17:21.261
01:19:56.792                             : :01:19:56.458
****************************
Tellytorrent.net 
Team Telly Official Site
****************************
www.MoviePirate.club
Enjoy Exclusives Content only on TellyTorrent.net








Files:

  • Zombieland (2009) 1080p BluRay x264 Dual Audio [Hindi DD5.1 + English DD5.1] ESub - MoviePirate [Telly].mkv (2.0 GB)

There are currently no comments. Feel free to leave one :)

Code:

  • udp://tracker.opentrackr.org:1337/announce
  • http://tracker1.itzmx.com:8080/announce
  • http://tracker3.itzmx.com:6961/announce
  • udp://open.demonii.si:1337/announce
  • udp://tracker.tiny-vps.com:6969/announce
  • udp://thetracker.org:80/announce
  • udp://open.stealth.si:80/announce
  • udp://bt.firebit.co.uk:6969/announce
  • udp://tracker.leechers-paradise.org:6969/announce
  • udp://9.rarbg.to:2710/announce
  • udp://9.rarbg.me:2710/announce
  • udp://9.rarbg.com:2710/announce
  • udp://9.rarbg.me:2730/announce
  • udp://tracker.internetwarriors.net:1337/announce
  • http://tracker.electro-torrent.pl:80/announce
/08/e7/ff/08e7ffd6a1ad8052c7c702273b643766.js'>