Route.80.2018.HDRip.XviD.AC3.LLG

  • Category Movies
  • Type Divx/Xvid
  • Language English
  • Total size 1.1 GB
  • Uploaded By LifeLongg
  • Downloads 41
  • Last checked 1 month ago
  • Date uploaded 1 month ago
  • Seeders 9
  • Leechers 25

Infohash : 10E3CC05DA1C88EB5AD454594ED5D33A21284797

Quote:





******************************Thumbnail:**********************




******************************Screenshots:********************

Screenshot 1

Screenshot 2

Screenshot 3

Screenshot 4

Screenshot 5

Screenshot 6

Screenshot 7

Screenshot 8

Screenshot 9

Screenshot 0

**********************************************************
General
18+Route.80.2018.HDRip.XviD.AC3.With.Sample.LLG.mp4
Format : MPEG-4
Format profile : Base Media
Codec ID : isom (isom/iso2/avc1/mp41)
File size : 1.04 GiB
Duration : 1 h 29 min
Overall bit rate mode : Variable
Overall bit rate : 1 667 kb/s
Writing application : Lavf57.83.100

Video
ID : 1
Format : AVC
Format/Info : Advanced Video Codec
Format profile : [email protected]
Format settings : CABAC / 1 Ref Frames
Format settings, CABAC : Yes
Format settings, Reference frames : 1 frame
Codec ID : avc1
Codec ID/Info : Advanced Video Coding
Duration : 1 h 29 min
Bit rate mode : Variable
Bit rate : 1 471 kb/s
Maximum bit rate : 4 500 kb/s
Width : 720 pixels
Height : 400 pixels
Display aspect ratio : 16:9
Frame rate mode : Constant

Color space : YUV
Chroma subsampling : 4:2:0
Bit depth : 8 bits
Scan type : Progressive
Bits/(Pixel*Frame) : 0.213
Stream size : 942 MiB (88%)
Codec configuration box : avcC

Audio
ID : 2
Format : AC-3
Format/Info : Audio Coding 3
Commercial name : Dolby Digital
Codec ID : ac-3
Duration : 1 h 29 min
Bit rate mode : Constant
Bit rate : 192 kb/s
Channel(s) : 6 channels
Channel layout : L R C LFE Ls Rs
Sampling rate : 48.0 kHz
Frame rate : 31.250 FPS (1536 SPF)
Bit depth : 16 bits
Compression mode : Lossy
Stream size : 123 MiB (12%)
Service kind : Complete Main
Default : Yes
Alternate group : 1


**********************************************************



Files:

18+.Route.80.2018.HDRip.XviD.AC3.LLG
  • Sample 2.ts (19.5 MB)
  • SAMPLE.ts (22.5 MB)
  • 18+Route.80.2018.HDRip.XviD.AC3.With.Sample.LLG.mp4 (1.0 GB)

There are currently no comments. Feel free to leave one :)

Code:

  • udp://tracker.openbittorrent.com:80/announce
  • udp://tracker.opentrackr.org:1337/announce
  • udp://exodus.desync.com:6969/announce
  • udp://tracker.coppersurfer.tk:6969/announce
  • udp://tracker.iamhansen.xyz:2000/announce
  • udp://tracker.opentrackr.org:1337/announce
  • udp://open.demonii.si:1337/announce
  • udp://tracker.pirateparty.gr:6969/announce
/08/e7/ff/08e7ffd6a1ad8052c7c702273b643766.js'>