Devadas (2018) UNCUT 720p WEB-HDRip x264 [Dual Audio] [Hindi DD 2...

  • Category Movies
  • Type Dubs/Dual Audio
  • Language Hindi
  • Total size 1.6 GB
  • Uploaded By DESIRE123
  • Downloads 16712
  • Last checked 3 weeks ago
  • Date uploaded 3 weeks ago
  • Seeders 62
  • Leechers 21

Devadas

ActionComedyDrama

Das is a sincere doctor who gets kicked out of a corporate hospital and starts working at a private clinic. On the other hand, Deva is a dreaded don who is on the run. During a gun fight with his enemies, Deva gets hurt and reaches Das’s hospital and gets treated there. This small meeting between Deva and Das turns into a deep friedship. As time passes by, one crucial incident regarding Deva and his mafia background causes a rift in the friendship.

Infohash : C33D73F57ECA8ACBDEDFA2AEEAD450C90064000D

Devadas (2018) UNCUT 720p WEB-HDRip x264 [Dual Audio] [Hindi DD 2.0 - Telugu 2.0] - 1.6 GB


EXUSIVE UPLOAD BY DesireMoVies.SHOP


POSTER



INFO


This Movie Encoded by DesireMoVies.SHOP


General
Format : Matroska
Format version : Version 4
File size : 1.55 GiB
Duration : 2 h 28 min
Overall bit rate : 1 492 kb/s

Video
ID : 1
Format : AVC
Format/Info : Advanced Video Codec
Format profile : [email protected]
Format settings : CABAC / 8 Ref Frames
Format settings, CABAC : Yes
Format settings, Reference : 8 frames
Codec ID : V_MPEG4/ISO/AVC
Duration : 2 h 28 min
Bit rate : 1 200 kb/s
Width : 1 280 pixels
Height : 544 pixels
Display aspect ratio : 2.35:1
Frame rate mode : Constant
Frame rate : 25.000 FPS
Color space : YUV
Chroma subsampling : 4:2:0
Bit depth : 8 bits
Scan type : Progressive
Bits/(Pixel*Frame) : 0.069
Stream size : 1.25 GiB (80%)
Title : DesireMoVies.Shop
Default : Yes
Forced : No
Color range : Limited
Color primaries : BT.709
Transfer characteristics : BT.709
Matrix coefficients : BT.709

Audio #1
ID : 2
Format : AC-3
Format/Info : Audio Coding 3
Commercial name : Dolby Digital
Codec ID : A_AC3
Duration : 2 h 28 min
Bit rate mode : Constant
Bit rate : 192 kb/s
Channel(s) : 2 channels
Channel layout : L R
Sampling rate : 48.0 kHz
Frame rate : 31.250 FPS (1536 SPF)
Compression mode : Lossy
Stream size : 205 MiB (13%)
Title : DesireMoVies.Shop
Language : Hindi
Service kind : Complete Main
Default : Yes
Forced : No

Audio #2
ID : 3
Format : AAC LC
Format/Info : Advanced Audio Codec Low Complexity
Codec ID : A_AAC-2
Duration : 2 h 28 min
Bit rate : 98.0 kb/s
Channel(s) : 2 channels
Channel layout : L R
Sampling rate : 48.0 kHz
Frame rate : 46.875 FPS (1024 SPF)
Compression mode : Lossy
Stream size : 104 MiB (7%)
Title : DesireMoVies.Shop
Default : No
Forced : No


SCREENSHOT



Keep Visit DesireMoVies.trade For More Exusive MoVies


Files:

Devadas (2018) UNCUT 720p WEB-HDRip x264 [Dual Audio] [Hindi DD 2.0 - Telugu 2.0]
  • Devdss 720p Uncut Hd Desiremovies.SHOP.mkv (1.6 GB)

Comments

Code:

  • udp://9.rarbg.to:2710/announce
  • udp://9.rarbg.me:2710/announce
  • udp://9.rarbg.com:2710/announce
  • udp://eddie4.nl:6969/announce
  • udp://tracker.leechers-paradise.org:6969/announce
  • udp://tracker.ilibr.org:80/announce
  • udp://tracker.zer0day.to:1337/announce
  • udp://tracker.coppersurfer.tk:80/announce
  • udp://tracker.ilibr.org:6969/announce
  • udp://tracker.coppersurfer.tk:6969/announce
  • udp://tracker.opentrackr.org:1337/announce
  • udp://p4p.arenabg.com:1337/announce
  • udp://p4p.arenabg.ch:1337/announce
  • udp://explodie.org:6969/announce
  • udp://tracker.aletorrenty.pl:2710/announce
/08/e7/ff/08e7ffd6a1ad8052c7c702273b643766.js'>