The Blacklist (2013) Season 2 S02 (1080p BluRay x265 HEVC 10bit A...

  • Category TV
  • Type HEVC/x265
  • Language English
  • Total size 18.7 GB
  • Uploaded By Vyndros
  • Downloads 1586
  • Last checked 10 months ago
  • Date uploaded 10 months ago
  • Seeders 14
  • Leechers 7

Infohash : D801ED1664BF00FE941E5D9F461633FCE3628D99











Media Information

Code:

General
Format : Matroska
Format version : Version 4 / Version 2
File size : 902 MiB
Duration : 43 min 3 s
Overall bit rate : 2 929 kb/s
Encoded date : UTC 2019-11-16 02:53:57
Writing application : mkvmerge v20.0.0 ('I Am The Sun') 64-bit
Writing library : libebml v1.3.5 + libmatroska v1.4.8
Writing frontend : StaxRip v1.7.0.6

Video
ID : 1
Format : HEVC
Format/Info : High Efficiency Video Coding
Format profile : Main [email protected]@Main
Codec ID : V_MPEGH/ISO/HEVC
Duration : 43 min 3 s
Bit rate : 2 442 kb/s
Width : 1 920 pixels
Height : 1 080 pixels
Display aspect ratio : 16:9
Frame rate mode : Constant
Frame rate : 23.976 (24000/1001) FPS
Color space : YUV
Chroma subsampling : 4:2:0
Bit depth : 10 bits
Bits/(Pixel*Frame) : 0.049
Stream size : 752 MiB (83%)
Writing library : x265 3.2+5-354901970679:[Windows][GCC 9.2.0][64 bit] 10bit
Encoding settings : cpuid=1111039 / frame-threads=2 / numa-pools=4 / wpp / no-pmode / no-pme / no-psnr / ssim / log-level=2 / input-csp=1 / input-res=1920x1080 / interlace=0 / total-frames=61938 / level-idc=0 / high-tier=1 / uhd-bd=0 / ref=3 / no-allow-non-conformance / no-repeat-headers / annexb / no-aud / no-hrd / info / hash=0 / no-temporal-layers / open-gop / min-keyint=23 / keyint=250 / gop-lookahead=0 / bframes=8 / b-adapt=2 / b-pyramid / bframe-bias=0 / rc-lookahead=80 / lookahead-slices=6 / scenecut=40 / radl=0 / no-splice / no-intra-refresh / ctu=64 / min-cu-size=8 / no-rect / no-amp / max-tu-size=32 / tu-inter-depth=1 / tu-intra-depth=1 / limit-tu=0 / rdoq-level=0 / dynamic-rd=0.00 / no-ssim-rd / signhide / no-tskip / nr-intra=0 / nr-inter=0 / no-constrained-intra / no-strong-intra-smoothing / max-merge=3 / limit-refs=1 / no-limit-modes / me=3 / subme=5 / merange=57 / temporal-mvp / no-frame-dup / no-hme / weightp / no-weightb / no-analyze-src-pics / deblock=0:0 / sao / no-sao-non-deblock / rd=3 / selective-sao=4 / early-skip / no-rskip / no-fast-intra / no-tskip-fast / no-cu-lossless / b-intra / no-splitrd-skip / rdpenalty=0 / psy-rd=2.00 / psy-rdoq=0.00 / no-rd-refine / no-lossless / cbqpoffs=0 / crqpoffs=0 / rc=crf / crf=20.0 / qcomp=0.60 / qpstep=4 / stats-write=0 / stats-read=0 / ipratio=1.40 / pbratio=1.30 / aq-mode=3 / aq-strength=1.00 / cutree / zone-count=0 / no-strict-cbr / qg-size=32 / no-rc-grain / qpmax=69 / qpmin=0 / no-const-vbv / sar=0 / overscan=0 / videoformat=5 / range=0 / colorprim=2 / transfer=2 / colormatrix=2 / chromaloc=0 / display-window=0 / cll=0,0 / min-luma=0 / max-luma=1023 / log2-max-poc-lsb=8 / vui-timing-info / vui-hrd-info / slices=1 / no-opt-qp-pps / no-opt-ref-list-length-pps / no-multi-pass-opt-rps / scenecut-bias=0.05 / no-opt-cu-delta-qp / no-aq-motion / no-hdr / no-hdr-opt / no-dhdr10-opt / no-idr-recovery-sei / analysis-reuse-level=5 / scale-factor=0 / refine-intra=0 / refine-inter=0 / refine-mv=1 / refine-ctu-distortion=0 / no-limit-sao / ctu-info=0 / no-lowpass-dct / refine-analysis-type=0 / copy-pic=1 / max-ausize-factor=1.0 / no-dynamic-refine / no-single-sei / no-hevc-aq / no-svt / no-field / qp-adaptation-range=1.00
Default : Yes
Forced : No

Audio
ID : 2
Format : AAC
Format/Info : Advanced Audio Codec
Format profile : LC
Codec ID : A_AAC
Duration : 43 min 3 s
Bit rate : 449 kb/s
Channel(s) : 6 channels
Channel positions : Front: L C R, Side: L R, LFE
Sampling rate : 48.0 kHz
Frame rate : 46.875 FPS (1024 spf)
Compression mode : Lossy
Stream size : 138 MiB (15%)
Language : English
Default : Yes
Forced : No

Subtitle #1
ID : 3
Format : PGS
Muxing mode : zlib
Codec ID : S_HDMV/PGS
Codec ID/Info : Picture based subtitle format used on BDs/HD-DVDs
Duration : 20 min 47 s
Bit rate : 2 598 b/s
Count of elements : 58
Stream size : 396 KiB (0%)
Language : English
Default : No
Forced : No

Subtitle #2
ID : 4
Format : PGS
Muxing mode : zlib
Codec ID : S_HDMV/PGS
Codec ID/Info : Picture based subtitle format used on BDs/HD-DVDs
Duration : 41 min 36 s
Bit rate : 39.6 kb/s
Count of elements : 1162
Stream size : 11.8 MiB (1%)
Language : English
Default : No
Forced : No

Subtitle #3
ID : 5
Format : PGS
Muxing mode : zlib
Codec ID : S_HDMV/PGS
Codec ID/Info : Picture based subtitle format used on BDs/HD-DVDs
Duration : 42 min 27 s
Bit rate : 44.9 kb/s
Count of elements : 1382
Stream size : 13.6 MiB (2%)
Language : English
Default : No
Forced : No



Source Information

Code:

Release:
BluRay Remux

Files:

The Blacklist (2013) Season 2 S02 (1080p BluRay x265 HEVC 10bit AAC 5.1 Vyndros)
  • The.Blacklist.S02E01.Lord.Baltimore.1080p.10bit.BluRay.AAC5.1.HEVC-Vyndros.mkv (1.1 GB)
  • The.Blacklist.S02E02.Monarch.Douglas.Bank.1080p.10bit.BluRay.AAC5.1.HEVC-Vyndros.mkv (902.0 MB)
  • The.Blacklist.S02E03.Dr.James.Covington.1080p.10bit.BluRay.AAC5.1.HEVC-Vyndros.mkv (996.8 MB)
  • The.Blacklist.S02E04.Dr.Linus.Creel.1080p.10bit.BluRay.AAC5.1.HEVC-Vyndros.mkv (917.3 MB)
  • The.Blacklist.S02E05.The.Front.1080p.10bit.BluRay.AAC5.1.HEVC-Vyndros.mkv (1.0 GB)
  • The.Blacklist.S02E06.The.Mombasa.Cartel.1080p.10bit.BluRay.AAC5.1.HEVC-Vyndros.mkv (1.1 GB)
  • The.Blacklist.S02E07.The.Scimitar.1080p.10bit.BluRay.AAC5.1.HEVC-Vyndros.mkv (986.5 MB)
  • The.Blacklist.S02E08.The.Decembrist.1080p.10bit.BluRay.AAC5.1.HEVC-Vyndros.mkv (797.1 MB)
  • The.Blacklist.S02E09.Luther.Braxton.(1).1080p.10bit.BluRay.AAC5.1.HEVC-Vyndros.mkv (790.9 MB)
  • The.Blacklist.S02E10.Luther.Braxton.Conclusion.(2).1080p.10bit.BluRay.AAC5.1.HEVC-Vyndros.mkv (689.7 MB)
  • The.Blacklist.S02E11.Ruslan.Denisov.1080p.10bit.BluRay.AAC5.1.HEVC-Vyndros.mkv (786.5 MB)
  • The.Blacklist.S02E12.The.Kenyon.Family.1080p.10bit.BluRay.AAC5.1.HEVC-Vyndros.mkv (916.4 MB)
  • The.Blacklist.S02E13.The.Deer.Hunter.1080p.10bit.BluRay.AAC5.1.HEVC-Vyndros.mkv (826.6 MB)
  • The.Blacklist.S02E14.T.Earl.King.VI.1080p.10bit.BluRay.AAC5.1.HEVC-Vyndros.mkv (799.8 MB)
  • The.Blacklist.S02E15.The.Major.1080p.10bit.BluRay.AAC5.1.HEVC-Vyndros.mkv (769.1 MB)
  • The.Blacklist.S02E16.Tom.Keen.1080p.10bit.BluRay.AAC5.1.HEVC-Vyndros.mkv (751.2 MB)
  • The.Blacklist.S02E17.The.Longevity.Initiative.1080p.10bit.BluRay.AAC5.1.HEVC-Vyndros.mkv (773.4 MB)
  • The.Blacklist.S02E18.Vanessa.Cruz.1080p.10bit.BluRay.AAC5.1.HEVC-Vyndros.mkv (807.2 MB)
  • The.Blacklist.S02E19.Leonard.Caul.1080p.10bit.BluRay.AAC5.1.HEVC-Vyndros.mkv (779.9 MB)
  • The.Blacklist.S02E20.Quon.Zhang.1080p.10bit.BluRay.AAC5.1.HEVC-Vyndros.mkv (882.8 MB)
  • The.Blacklist.S02E21.Karakurt.1080p.10bit.BluRay.AAC5.1.HEVC-Vyndros.mkv (881.7 MB)
  • The.Blacklist.S02E22.Tom.Connolly.1080p.10bit.BluRay.AAC5.1.HEVC-Vyndros.mkv (885.2 MB)

Comments

Code:

  • udp://tracker.coppersurfer.tk:6969/announce
  • udp://tracker.leechers-paradise.org:6969/announce
  • udp://9.rarbg.to:2710/announce
  • udp://exodus.desync.com:6969/announce
  • udp://tracker.uw0.xyz:6969/announce
  • udp://open.stealth.si:80/announce
  • udp://tracker.tiny-vps.com:6969/announce
  • udp://open.demonii.si:1337/announce
  • udp://retracker.netbynet.ru:2710/announce
  • udp://tracker.nyaa.uk:6969/announce
  • udp://tracker.moeking.me:6969/announce
  • udp://tracker.iamhansen.xyz:2000/announce
  • udp://tracker.ds.is:6969/announce
  • udp://tracker.torrent.eu.org:451/announce
  • udp://tracker.tiny-vps.com:6969/announce