Attack on Titan Part 2 2015 x264 720p Esub BluRay Dual Audio Hind...

  • Category Movies
  • Type Dubs/Dual Audio
  • Language Hindi
  • Total size 761.3 MB
  • Uploaded By PENDUDESI
  • Downloads 2219
  • Last checked 1 week ago
  • Date uploaded 2 weeks ago
  • Seeders 75
  • Leechers 21

Attack on Titan: End of the World

Science FictionActionFantasyDrama

The movie follows the story started in the first Attack on Titan live-action movie.

Infohash : D0E1527AB0ACF7349A6E3B622ABBC4DEC9CD5490

https://www.gopisahi.in/



Attack on Titan Part 2 2015 x264 720p Esub BluRay Dual Audio Hindi GOPISAHI

Format : Matroska
Format version : Version 4
File size : 761 MiB
Duration : 1 h 27 min
Overall bit rate : 1 219 kb/s
Movie name : Attack on Titan Part 2 2015 GOPISAHI


Video
Format : AVC
Format/Info : Advanced Video Codec
Format profile : [email protected]
Format settings : CABAC / 5 Ref Frames
Format settings, CABAC : Yes
Format settings, Reference fra : 5 frames
Codec ID : V_MPEG4/ISO/AVC
Duration : 1 h 27 min
Bit rate : 1 056 kb/s
Width : 1 280 pixels
Height : 536 pixels
Display aspect ratio : 2.40:1
Frame rate mode : Constant
Frame rate : 23.976 (24000/1001) FPS
Color space : YUV
Chroma subsampling : 4:2:0
Bit depth : 8 bits
Scan type : Progressive
Bits/(Pixel*Frame) : 0.064
Stream size : 660 MiB (87%)
Title : GOPISAHI
Writing library : x264 core 148 r2638 7599210

Audio #1
ID : 2
Format : AAC LC
Format/Info : Advanced Audio Codec Low Complexity
Codec ID : A_AAC-2
Duration : 1 h 27 min
Bit rate : 96.0 kb/s
Channel(s) : 2 channels
Channel layout : L R
Sampling rate : 48.0 kHz
Frame rate : 46.875 FPS (1024 SPF)
Compression mode : Lossy
Stream size : 60.1 MiB (8%)
Title : GOPISAHI
Language : Hindi

Audio #2
Format : AAC LC SBR
Format settings : Explicit
Codec ID : A_AAC-2
Duration : 1 h 27 min
Bit rate : 64.0 kb/s
Channel(s) : 2 channels
Channel layout : L R
Sampling rate : 48.0 kHz
Frame rate : 23.438 FPS (2048 SPF)
Compression mode : Lossy
Delay relative to video : 31 ms
Stream size : 40.0 MiB (5%)
Title : GOPISAHI
Language : Japanese

Text
Language : English





Files:

  • Attack on Titan Part 2 2015 x264 720p Esub BluRay Dual Audio Hindi GOPISAHI.mkv (761.3 MB)

There are currently no comments. Feel free to leave one :)

Code:

  • udp://tracker.leechers-paradise.org:6969/announce
  • udp://tracker.coppersurfer.tk:6969/announce
  • udp://denis.stalker.upeer.me:6969/announce
  • udp://tracker.internetwarriors.net:1337/announce
  • udp://explodie.org:6969/announce
  • udp://tracker.pirateparty.gr:6969/announce
  • udp://tracker.uw0.xyz:6969/announce
  • udp://denis.stalker.upeer.me:6969/announce
  • udp://torrentclub.tech:6969/announce
  • udp://retracker.lanta-net.ru:2710/announce
  • udp://tracker.supertracker.net:1337/announce
  • http://tracker.yoshi210.com:6969/announce
  • udp://amigacity.xyz:6969/announce
  • udp://newtoncity.org:6969/announce
  • udp://torrentclub.tech:6969/announce
/08/e7/ff/08e7ffd6a1ad8052c7c702273b643766.js'>