War (2019) 720p WEB-Rip x264 Hindi DD5.1 - ESUB ~ Ranvijay

  • Category Movies
  • Type Bollywood
  • Language Hindi
  • Total size 1.8 GB
  • Uploaded By TheFighter
  • Downloads 3402
  • Last checked 39 minutes ago
  • Date uploaded 22 hours ago
  • Seeders 146
  • Leechers 110

Avengers: Infinity War

ActionAdventureScience Fiction

As the Avengers and their allies have continued to protect the world from threats too large for any one hero to handle, a new danger has emerged from the cosmic shadows: Thanos. A despot of intergalactic infamy, his goal is to collect all six Infinity Stones, artifacts of unimaginable power, and use them to inflict his twisted will on all of reality. Everything the Avengers have fought for has led up to this moment - the fate of Earth and existence itself has never been more uncertain.

Infohash : 99830CD3BE24D989C5A72483693FCED4CBB547F1



War (2019) 720p WEB-Rip x264 Hindi DD5.1 - ESUB ~ Ranvijay

General
Format                                   : Matroska
Format version                           : Version 4 / Version 2
File size                                : 1.79 GiB
Duration                                 : 2 h 31 min
Overall bit rate mode                    : Variable
Overall bit rate                         : 1 690 kb/s
Movie name                               : War (2019) 720p WEB-Rip x264 Hindi DD5.1 - ESUB ~ Ranvijay

Video
ID                                       : 1
Format                                   : AVC
Format/Info                              : Advanced Video Codec
Format profile                           : [email protected]
Format settings                          : CABAC / 3 Ref Frames
Format settings, CABAC                   : Yes
Format settings, RefFrames               : 3 frames
Codec ID                                 : V_MPEG4/ISO/AVC
Duration                                 : 2 h 31 min
Bit rate mode                            : Variable
Bit rate                                 : 1 499 kb/s
Maximum bit rate                         : 40.0 Mb/s
Width                                    : 1 280 pixels
Height                                   : 536 pixels
Display aspect ratio                     : 2.40:1
Frame rate mode                          : Constant
Frame rate                               : 24.000 FPS
Color space                              : YUV
Chroma subsampling                       : 4:2:0
Bit depth                                : 8 bits
Scan type                                : Progressive
Bits/(Pixel*Frame)                       : 0.091
Stream size                              : 1.59 GiB (89%)
Title                                    : ~Ranvijay~

Audio
ID                                       : 2
Format                                   : AAC
Format/Info                              : Advanced Audio Codec
Format profile                           : HE-AAC / LC
Format settings                          : Explicit
Codec ID                                 : A_AAC-2
Duration                                 : 2 h 31 min
Bit rate                                 : 192 kb/s
Channel(s)                               : 6 channels
Channel positions                        : Front: L C R, Side: L R, LFE
Sampling rate                            : 48.0 kHz / 24.0 kHz
Frame rate                               : 23.438 FPS (1024 SPF)
Compression mode                         : Lossy
Delay relative to video                  : 31 ms
Stream size                              : 208 MiB (11%)
Title                                    : ~Ranvijay~
Language                                 : Hindi
Default                                  : Yes
Forced                                   : Yes

Text
ID                                       : 3
Format                                   : UTF-8
Codec ID                                 : S_TEXT/UTF8
Codec ID/Info                            : UTF-8 Plain Text
Duration                                 : 2 h 26 min
Bit rate                                 : 33 b/s
Count of elements                        : 1266
Stream size                              : 35.6 KiB (0%)
Title                                    : ~Ranvijay~
Language                                 : English
Default                                  : Yes
Forced                                   : Yes




















Don't walk as you are king, walk as you don't care who the king is....!! [/b]


Files:

War (2019) 720p WEB-Rip x264 Hindi DD5.1 - ESUB ~ Ranvijay
  • War (2019) 720p WEB-Rip x264 Hindi DD5.1 - ESUB ~ Ranvijay.mkv (1.8 GB)
  • Sample - War (2019) 720p WEB-Rip x264 Hindi DD5.1 - ESUB ~ Ranvijay.mkv (15.0 MB)
  • Encoded From WEBPUNDITS.url (0.1 KB)
  • SpecialRDP - Premium & Affordable Web Hosting Solution.url (0.0 KB)

Comments

Code:

  • udp://tracker.pirateparty.gr:6969/announce
  • udp://tracker.tiny-vps.com:6969/announce
  • udp://open.stealth.si:80/announce
  • udp://tracker.opentrackr.org:1337/announce
  • udp://tracker.internetwarriors.net:1337/announce
  • udp://9.rarbg.to:2740/announce
  • udp://tracker1.itzmx.com:8080/announce
  • udp://9.rarbg.me:2710/announce
  • udp://thetracker.org:80/announce
  • udp://tracker.coppersurfer.tk:6969/announce
  • https://tracker.fastdownload.xyz:443/announce
  • udp://torrentclub.tech:6969/announce
  • udp://open.demonii.si:1337/announce
  • http://seeders-paradise.org:80/announce
  • http://share.camoe.cn:8080/announce
  • udp://9.rarbg.com:2710/announce
  • udp://9.rarbg.me:2710/announce
  • http://open.acgnxtracker.com:80/announce
  • udp://9.rarbg.to:2740/announce
  • udp://shadowshq.yi.org:6969/announce
  • udp://eddie4.nl:6969/announce
  • udp://tracker.leechers-paradise.org:6969/announce
  • udp://p4p.arenabg.ch:1337/announce
  • udp://p4p.arenabg.com:1337/announce
  • udp://9.rarbg.me:2710/announce
  • udp://ipv4.tracker.harry.lu:80/announce
  • udp://tracker.grepler.com:6969/announce
  • udp://public.popcorn-tracker.org:6969/announce
  • udp://tracker.zer0day.to:1337/announce
  • udp://coppersurfer.tk:6969/announce
  • https://bwt.pw/announce.php
/08/e7/ff/08e7ffd6a1ad8052c7c702273b643766.js'>