Seitokai Yakuindomo [ED] + [angela - Aoi Haru] [Full Version] [10...

  • Category Anime
  • Type Subbed
  • Language English
  • Total size 471.4 MB
  • Uploaded By jnxr
  • Downloads 8
  • Last checked 27 minutes ago
  • Date uploaded 18 hours ago
  • Seeders 13
  • Leechers 1

Infohash : ADA349127966C4D9E4040F5529D1C3EE4A095A61

=====================================
This ending is pretty nice. ∴ Sharing it in nice quality.
=====================================
=====================================
https://www.youtube.com/watch?v=N-fFOV-_J_o
=====================================

General
Unique ID : 318094054540166954647424799664138455549 (0xEF4EAFBCF5AB7ED919E519FC2DA989FD)
Complete name : Seitokai Yakuindomo ED.mkv
Format : Matroska
Format version : Version 4
File size : 140 MiB
Duration : 1 min 30 s
Overall bit rate mode : Variable
Overall bit rate : 13.0 Mb/s
Encoded date : UTC 2019-11-29 12:36:51
Writing application : mkvmerge v40.0.0 (‘Old Town Road + Pony’) 64-bit
Writing library : libebml v1.3.9 + libmatroska v1.5.2 / Lavf58.20.100
Attachments : arial.ttf / ArialRoundedMTStd-ExtraBold.otf / ariblk.ttf / ARLRDBD.TTF / AVGARDNEclipse.ttf / BellGothicStd-Black.otf / BellMTStd-Regular.otf / City-Bold.otf / City-Medium.otf / Derrin-Heavy.otf / EDOSZ.TTF / FRABK.TTF / GillSansStd-ExtraBoldDisp.otf / kaiu.ttf / MTCORSVA.TTF / Vesta-Bold.otf

Video
ID : 1
Format : AVC
Format/Info : Advanced Video Codec
Format profile : [email protected]
Format settings : CABAC / 16 Ref Frames
Format settings, CABAC : Yes
Format settings, Reference : 16 frames
Codec ID : V_MPEG4/ISO/AVC
Duration : 1 min 30 s
Bit rate : 8 996 kb/s
Width : 1 920 pixels
Height : 1 080 pixels
Display aspect ratio : 16:9
Frame rate mode : Constant
Frame rate : 23.976 (24000/1001) FPS
Color space : YUV
Chroma subsampling : 4:2:0
Bit depth : 8 bits
Scan type : Progressive
Bits/(Pixel*Frame) : 0.181
Stream size : 96.5 MiB (69%)
Writing library : x264 core 146 r2538 121396c
Encoding settings : cabac=1 / ref=16 / deblock=1:1:1 / analyse=0x3:0x133 / me=tesa / subme=11 / psy=1 / psy_rd=0.40:0.00 / mixed_ref=1 / me_range=24 / chroma_me=1 / trellis=2 / 8x8dct=1 / cqm=0 / deadzone=21,11 / fast_pskip=0 / chroma_qp_offset=-2 / threads=18 / lookahead_threads=4 / sliced_threads=0 / nr=0 / decimate=1 / interlaced=0 / bluray_compat=0 / constrained_intra=0 / bframes=16 / b_pyramid=2 / b_adapt=2 / b_bias=0 / direct=3 / weightb=1 / open_gop=0 / weightp=2 / keyint=250 / keyint_min=23 / scenecut=40 / intra_refresh=0 / rc_lookahead=60 / rc=crf / mbtree=1 / crf=12.0 / qcomp=0.60 / qpmin=0 / qpmax=69 / qpstep=4 / ip_ratio=1.40 / aq=1:0.60
Default : Yes
Forced : No

Audio #1
ID : 2
Format : FLAC
Format/Info : Free Lossless Audio Codec
Codec ID : A_FLAC
Duration : 1 min 30 s
Bit rate mode : Variable
Bit rate : 1 700 kb/s
Channel(s) : 2 channels
Channel layout : L R
Sampling rate : 48.0 kHz
Frame rate : 11.719 FPS (4096 SPF)
Bit depth : 24 bits
Compression mode : Lossless
Delay relative to video : 18 ms
Stream size : 18.3 MiB (13%)
Language : Japanese
Default : Yes
Forced : No

Audio #2
ID : 3
Format : FLAC
Format/Info : Free Lossless Audio Codec
Codec ID : A_FLAC
Duration : 1 min 30 s
Bit rate mode : Variable
Bit rate : 1 700 kb/s
Channel(s) : 2 channels
Channel layout : L R
Sampling rate : 48.0 kHz
Frame rate : 11.719 FPS (4096 SPF)
Bit depth : 24 bits
Compression mode : Lossless
Delay relative to video : 18 ms
Stream size : 18.3 MiB (13%)
Language : Japanese
Default : No
Forced : No

Text
ID : 4
Format : ASS
Codec ID : S_TEXT/ASS
Codec ID/Info : Advanced Sub Station Alpha
Duration : 1 min 22 s
Bit rate : 899 b/s
Count of elements : 99
Compression mode : Lossless
Stream size : 9.08 KiB (0%)
Title : EN - JP Subs
Language : English
Default : Yes
Forced : Yes

Menu
00:00:00.000 : en:ED

--------------------------------------------------------------------------------------

General
Unique ID : 210463336914334030256605741852096232050 (0x9E55C3A795D11088482EB4FF28887A72)
Complete name :Seitokai Yakuindomo ED Full Live Action Version [angela - Aoi Haru 「蒼い春」TVアニメ『生徒会役員共』EDテーマ].mkv
Format : Matroska
Format version : Version 4
File size : 268 MiB
Duration : 4 min 46 s
Overall bit rate mode : Variable
Overall bit rate : 7 855 kb/s
Encoded date : UTC 2019-11-29 12:40:31
Writing application : mkvmerge v40.0.0 (‘Old Town Road + Pony’) 64-bit
Writing library : libebml v1.3.9 + libmatroska v1.5.2

Video
ID : 1
Format : AVC
Format/Info : Advanced Video Codec
Format profile : [email protected]
Format settings : CABAC / 3 Ref Frames
Format settings, CABAC : Yes
Format settings, Reference : 3 frames
Codec ID : V_MPEG4/ISO/AVC
Duration : 4 min 46 s
Bit rate : 4 393 kb/s
Width : 1 920 pixels
Height : 1 080 pixels
Display aspect ratio : 16:9
Frame rate mode : Constant
Frame rate : 29.970 (30000/1001) FPS
Color space : YUV
Chroma subsampling : 4:2:0
Bit depth : 8 bits
Scan type : Progressive
Bits/(Pixel*Frame) : 0.071
Stream size : 150 MiB (56%)
Title : angela - Aoi Haru 「蒼い春」TVアニメ『生徒会役員共』EDテーマ
Language : Japanese
Default : Yes
Forced : No
Color range : Limited
Color primaries : BT.709
Transfer characteristics : BT.709
Matrix coefficients : BT.709

Audio #1
ID : 2
Format : FLAC
Format/Info : Free Lossless Audio Codec
Codec ID : A_FLAC
Duration : 4 min 46 s
Bit rate mode : Variable
Bit rate : 1 676 kb/s
Channel(s) : 2 channels
Channel layout : L R
Sampling rate : 44.1 kHz
Frame rate : 10.769 FPS (4095 SPF)
Bit depth : 24 bits
Compression mode : Lossless
Stream size : 57.2 MiB (21%)
Title : FLAC 24 Bit Vocals Track
Writing library : libFLAC 1.3.2 (UTC 2017-01-01)
Language : Japanese
Default : Yes
Forced : Yes

Audio #2
ID : 3
Format : FLAC
Format/Info : Free Lossless Audio Codec
Codec ID : A_FLAC
Duration : 4 min 46 s
Bit rate mode : Variable
Bit rate : 1 656 kb/s
Channel(s) : 2 channels
Channel layout : L R
Sampling rate : 44.1 kHz
Frame rate : 10.769 FPS (4095 SPF)
Bit depth : 24 bits
Compression mode : Lossless
Stream size : 56.5 MiB (21%)
Title : FLAC 24 Bit Karaoke Track
Writing library : libFLAC 1.3.2 (UTC 2017-01-01)
Language : Japanese
Default : No
Forced : No

Audio #3
ID : 4
Format : AAC LC
Format/Info : Advanced Audio Codec Low Complexity
Codec ID : A_AAC-2
Duration : 4 min 46 s
Bit rate : 128 kb/s
Channel(s) : 2 channels
Channel layout : L R
Sampling rate : 44.1 kHz
Frame rate : 43.066 FPS (1024 SPF)
Compression mode : Lossy
Delay relative to video : 23 ms
Stream size : 4.37 MiB (2%)
Title : AAC Vocals Track
Language : Japanese
Default : No
Forced : No
---------------------------------------------------------------------
regards,
~jnx_r

Files:

Seitokai Yakuindomo ED [1080p x264 24bit FLAC] ~jnx_r
  • angela - Aoi Haru (Instrumental) 24bit [2525BA9B].flac (31.5 MB)
  • angela - Aoi Haru 24bit [29BC3E47].flac (32.2 MB)
  • Seitokai Yakuindomo ED [1080p x264 24bit FLAC] ~jnx_r [605547FC].mkv (139.6 MB)
  • Seitokai Yakuindomo ED Full Live Action Version [angela - Aoi Haru 「蒼い春」TVアニメ『生徒会役員共』EDテーマ] [ED6A79A0].mkv (268.1 MB)

There are currently no comments. Feel free to leave one :)

Code:

  • http://nyaa.tracker.wf:7777/announce
  • udp://tracker.openbittorrent.com:80/announce
  • udp://tracker.coppersurfer.tk:6969/announce
  • udp://tracker.internetwarriors.net:1337/announce
  • udp://tracker.leechers-paradise.org:6969/announce
  • udp://tracker.opentrackr.org:1337/announce
  • udp://open.stealth.si:80/announce
  • udp://p4p.arenabg.com:1337/announce
  • udp://mgtracker.org:6969/announce
  • udp://tracker.tiny-vps.com:6969/announce
  • udp://peerfect.org:6969/announce
  • http://share.camoe.cn:8080/announce
  • http://t.nyaatracker.com:80/announce
  • udp://exodus.desync.com:6969/announce
/08/e7/ff/08e7ffd6a1ad8052c7c702273b643766.js'>