The Irishman (2019).720p.H264.ita.eng.Ac3-5.1.sub.ita-MIRCrew

  • Category Movies
  • Type HD
  • Language English
  • Total size 4.1 GB
  • Uploaded By robbyrs
  • Downloads 922
  • Last checked 1 week ago
  • Date uploaded 1 week ago
  • Seeders 100
  • Leechers 24

The Irishman

CrimeHistory

World War II veteran and mob hitman Frank "The Irishman" Sheeran recalls his possible involvement with the slaying of union leader Jimmy Hoffa.

Infohash : E4496510C7000544FA2E8C1E52F9217D0B432BC3

The Irishman (2019).720p.H264.ita.eng.Ac3-5.1.sub.ita-MIRCrew


NO FOUND ONLY ORIGINAL RELEASE

My release is always in double track audio italian and Original audio
for select it use VLC or dvd player home
not use wmp

The Irishman (2019)

Quality MIRCrew on HD 720p da 4,0 gb









Lingua originale inglese, italiano
Paese di produzione Stati Uniti d'America
Anno 2019
Durata 209 min
Rapporto Widescreen
Genere biografico, storico, drammatico, gangster
Regia Martin Scorsese
Soggetto dal libro di Charles Brandt
Sceneggiatura Steven Zaillian



Robert De Niro: Frank "The Irishman" Sheeran
Al Pacino: Jimmy Hoffa
Joe Pesci: Russell Bufalino
Harvey Keitel: Angelo Bruno
Bobby Cannavale: Felix "Skinny Razor" DiTullio
Anna Paquin: Peggy Sheeran
Stephen Graham: Anthony "Tony Pro" Provenzano
Kathrine Narducci: Carrie Bufalino
Domenick Lombardozzi: Anthony "Fat Tony" Salerno
Sebastian Maniscalco: Joe "Crazy" Gallo
Ray Romano: Bill Bufalino
Loius Cancelmi: Sally Bugs



In una casa di cura, seduto su una sedia a rotelle, Frank Sheeran, veterano della seconda guerra mondiale, racconta la sua vita da sicario della mafia.



Frank "The Irishman" Sheeran is a man with a lot on his mind. The former labor union high official and hitman, learned to kill serving in Italy during the Second World War.







General

Complete name : The Irishman (2019).720p.ita.eng.sub.ita-MIRCrew\The Irishman (2019).720p.ita.eng.sub.ita-MIRCrew.mkv
Format : Matroska
Format version : Version 2
File size : 4.09 GiB
Duration : 3h 29mn
Overall bit rate : 2 796 Kbps
Movie name : robbyrs
Encoded date : UTC 2019-11-27 15:54:24
Writing application : mkvmerge v5.8.0 ('No Sleep / Pillow') built on Sep 2 2012 15:37:04
Writing library : Lavf54.63.100
COMMENT : robbyrs

Video
ID : 1
Format : AVC
Format/Info : Advanced Video Codec
Format profile : [email protected]
Format settings, CABAC : Yes
Format settings, ReFrames : 2 frames
Codec ID : V_MPEG4/ISO/AVC
Duration : 3h 29mn
Bit rate : 1 845 Kbps
Nominal bit rate : 2 000 Kbps
Width : 1 280 pixels
Height : 720 pixels
Display aspect ratio : 16:9
Frame rate mode : Variable
Frame rate : 24.000 fps
Color space : YUV
Chroma subsampling : 4:2:0
Bit depth : 8 bits
Scan type : Progressive
Bits/(Pixel*Frame) : 0.083
Stream size : 2.70 GiB (66%)
Title : robbyrs
Writing library : x264 core 130 r2273
Encoding settings : cabac=1 / ref=2 / deblock=1:0:0 / analyse=0x1:0x131 / me=hex / subme=7 / psy=1 / psy_rd=1.00:0.00 / mixed_ref=0 / me_range=16 / chroma_me=1 / trellis=1 / 8x8dct=0 / cqm=0 / deadzone=21,11 / fast_pskip=1 / chroma_qp_offset=-2 / threads=9 / lookahead_threads=1 / sliced_threads=0 / nr=0 / decimate=1 / interlaced=0 / bluray_compat=0 / constrained_intra=0 / bframes=3 / b_pyramid=0 / b_adapt=1 / b_bias=0 / direct=3 / weightb=1 / open_gop=0 / weightp=2 / keyint=240 / keyint_min=24 / scenecut=40 / intra_refresh=0 / rc_lookahead=40 / rc=abr / mbtree=1 / bitrate=2000 / ratetol=1.0 / qcomp=0.60 / qpmin=10 / qpmax=69 / qpstep=4 / vbv_maxrate=24000 / vbv_bufsize=24000 / nal_hrd=none / ip_ratio=1.40 / aq=1:1.00
Language : Italian
Default : Yes
Forced : No
DURATION : 03:29:26.584000000
NUMBER_OF_FRAMES : 301598
NUMBER_OF_BYTES : 1784203356
_STATISTICS_WRITING_APP : mkvmerge v40.0.0 ('Old Town Road + Pony') 64-bit
_STATISTICS_WRITING_DATE_UTC : 2019-11-27 15:54:24
_STATISTICS_TAGS : BPS DURATION NUMBER_OF_FRAMES NUMBER_OF_BYTES

Audio #1
ID : 2
Format : AC-3
Format/Info : Audio Coding 3
Mode extension : CM (complete main)
Codec ID : A_AC3
Duration : 3h 29mn
Bit rate mode : Constant
Bit rate : 448 Kbps
Channel(s) : 6 channels
Channel positions : Front: L C R, Side: L R, LFE
Sampling rate : 48.0 KHz
Bit depth : 16 bits
Compression mode : Lossy
Delay relative to video : -5ms
Stream size : 671 MiB (16%)
Title : Ita Ac3 5.1
Language : Italian
Default : Yes
Forced : Yes
DURATION : 03:29:26.560000000
NUMBER_OF_FRAMES : 392705
NUMBER_OF_BYTES : 1005324800
_STATISTICS_WRITING_APP : mkvmerge v40.0.0 ('Old Town Road + Pony') 64-bit
_STATISTICS_WRITING_DATE_UTC : 2019-11-27 15:54:24
_STATISTICS_TAGS : BPS DURATION NUMBER_OF_FRAMES NUMBER_OF_BYTES

Audio #2
ID : 3
Format : AC-3
Format/Info : Audio Coding 3
Mode extension : CM (complete main)
Codec ID : A_AC3
Duration : 3h 29mn
Bit rate mode : Constant
Bit rate : 448 Kbps
Channel(s) : 6 channels
Channel positions : Front: L C R, Side: L R, LFE
Sampling rate : 48.0 KHz
Bit depth : 16 bits
Compression mode : Lossy
Delay relative to video : -5ms
Stream size : 671 MiB (16%)
Title : Eng Ac3 5.1
Language : English
Default : No
Forced : No
DURATION : 03:29:26.560000000
NUMBER_OF_FRAMES : 392705
NUMBER_OF_BYTES : 1005324800
_STATISTICS_WRITING_APP : mkvmerge v40.0.0 ('Old Town Road + Pony') 64-bit
_STATISTICS_WRITING_DATE_UTC : 2019-11-27 15:54:24
_STATISTICS_TAGS : BPS DURATION NUMBER_OF_FRAMES NUMBER_OF_BYTES






Files:

The Irishman (2019).720p.ita.eng.sub.ita-MIRCrew
  • The Irishman (2019).720p.ita.eng.sub.ita-MIRCrew.ita.srt (187.4 KB)
  • The Irishman (2019).720p.ita.eng.sub.ita-MIRCrew.mkv (4.1 GB)
  • The Irishman (2019).720p.ita.eng.sub.ita-MIRCrew.srt (10.8 KB)

There are currently no comments. Feel free to leave one :)

Code:

  • udp://tracker.coppersurfer.tk:6969/announce
  • udp://tracker.torrent.eu.org:451/announce
  • udp://tracker.leechers-paradise.org:6969/announce
  • udp://tracker.opentrackr.org:1337/announce
  • udp://9.rarbg.to:2730/announce
  • udp://9.rarbg.com:2710/announce
  • udp://9.rarbg.me:2780/announce
  • udp://tracker.coppersurfer.tk:80/announce
  • udp://tracker.pirateparty.gr:6969/announce
  • udp://tracker.eddie4.nl:6969/announce
  • udp://shadowshq.yi.org:6969/announce
  • udp://shadowshq.eddie4.nl:6969/announce
  • udp://inferno.demonoid.pw:3391/announce
  • udp://eddie4.nl:6969/announce
  • udp://62.138.0.158:6969/announce
/08/e7/ff/08e7ffd6a1ad8052c7c702273b643766.js'>