The Mandalorian S01E04 1080p AMZN WEBrip x265 DDP5 1 D0ct0rLew[S...

  • Category TV
  • Type HEVC/x265
  • Language English
  • Total size 1.6 GB
  • Uploaded By D0ct0rLew
  • Downloads 246
  • Last checked 54 minutes ago
  • Date uploaded 8 hours ago
  • Seeders 89
  • Leechers 45

Infohash : 155A89B68BA901045AEDB41861DF11E622AAAA20





Media Information



Unique ID : 135113203808948234491716348863545795389 (0x65A5DB44397FDF64AF1E96BDB9F2E33D)
Complete name : The Mandalorian S01E04 1080p AMZN WEBrip x265 DDP5 1 D0ct0rLew[SEV].mkv
Format : Matroska
Format version : Version 4
File size : 1.63 GiB
Duration : 41 min 15 s
Overall bit rate : 5 672 kb/s
Movie name : The Mandalorian S01E04 1080p AMZN WEBrip x265 DDP5 1 D0ct0rLew[SEV]
Encoded date : UTC 2019-11-29 20:36:46
Writing application : mkvmerge v37.0.0 ('Leave It') 64-bit
Writing library : libebml v1.3.9 + libmatroska v1.5.2

Video
ID : 2
Format : HEVC
Format/Info : High Efficiency Video Coding
Format profile : Main [email protected]@Main
Codec ID : V_MPEGH/ISO/HEVC
Duration : 41 min 14 s
Bit rate : 4 929 kb/s
Width : 1 920 pixels
Height : 804 pixels
Display aspect ratio : 2.40:1
Frame rate mode : Constant
Frame rate : 23.976 (24000/1001) FPS
Color space : YUV
Chroma subsampling : 4:2:0
Bit depth : 10 bits
Bits/(Pixel*Frame) : 0.133
Stream size : 1.42 GiB (87%)
Writing library : x265 3.2+9-971180b100f8:[Windows][MSVC 1923][64 bit] 10bit
Encoding settings : cpuid=1111039 / frame-threads=3 / numa-pools=8 / wpp / no-pmode / no-pme / no-psnr / no-ssim / log-level=2 / input-csp=1 / input-res=1920x804 / interlace=0 / total-frames=59339 / level-idc=0 / high-tier=1 / uhd-bd=0 / ref=4 / no-allow-non-conformance / no-repeat-headers / annexb / no-aud / no-hrd / info / hash=0 / no-temporal-layers / open-gop / min-keyint=23 / keyint=250 / gop-lookahead=0 / bframes=16 / b-adapt=2 / b-pyramid / bframe-bias=0 / rc-lookahead=90 / lookahead-slices=4 / scenecut=40 / radl=0 / no-splice / no-intra-refresh / ctu=64 / min-cu-size=8 / no-rect / no-amp / max-tu-size=32 / tu-inter-depth=4 / tu-intra-depth=4 / limit-tu=0 / rdoq-level=2 / dynamic-rd=0.00 / no-ssim-rd / signhide / no-tskip / nr-intra=0 / nr-inter=0 / no-constrained-intra / no-strong-intra-smoothing / max-merge=3 / limit-refs=3 / limit-modes / me=3 / subme=7 / merange=92 / temporal-mvp / no-frame-dup / no-hme / weightp / no-weightb / no-analyze-src-pics / deblock=0:0 / sao / no-sao-non-deblock / rd=4 / selective-sao=4 / no-early-skip / rskip / no-fast-intra / no-tskip-fast / no-cu-lossless / no-b-intra / no-splitrd-skip / rdpenalty=0 / psy-rd=1.30 / psy-rdoq=1.00 / no-rd-refine / no-lossless / cbqpoffs=0 / crqpoffs=0 / rc=crf / crf=15.8 / qcomp=0.60 / qpstep=4 / stats-write=0 / stats-read=0 / ipratio=1.40 / pbratio=1.30 / aq-mode=4 / aq-strength=1.00 / cutree / zone-count=0 / no-strict-cbr / qg-size=32 / no-rc-grain / qpmax=69 / qpmin=0 / no-const-vbv / sar=0 / overscan=0 / videoformat=5 / range=0 / colorprim=2 / transfer=2 / colormatrix=2 / chromaloc=0 / display-window=0 / cll=0,0 / min-luma=0 / max-luma=1023 / log2-max-poc-lsb=8 / vui-timing-info / vui-hrd-info / slices=1 / no-opt-qp-pps / no-opt-ref-list-length-pps / no-multi-pass-opt-rps / scenecut-bias=0.05 / no-opt-cu-delta-qp / no-aq-motion / no-hdr / no-hdr-opt / no-dhdr10-opt / no-idr-recovery-sei / analysis-reuse-level=5 / scale-factor=0 / refine-intra=0 / refine-inter=0 / refine-mv=1 / refine-ctu-distortion=0 / no-limit-sao / ctu-info=0 / no-lowpass-dct / refine-analysis-type=0 / copy-pic=1 / max-ausize-factor=1.0 / no-dynamic-refine / no-single-sei / no-hevc-aq / no-svt / no-field / qp-adaptation-range=1.00
Default : Yes
Forced : No

Audio
ID : 3
Format : E-AC-3 JOC
Format/Info : Enhanced AC-3 with Joint Object Coding
Commercial name : Dolby Digital Plus with Dolby Atmos
Codec ID : A_EAC3
Duration : 41 min 15 s
Bit rate mode : Constant
Bit rate : 768 kb/s
Channel(s) : 6 channels
Channel layout : L R C LFE Ls Rs
Sampling rate : 48.0 kHz
Frame rate : 31.250 FPS (1536 SPF)
Compression mode : Lossy
Stream size : 219 MiB (13%)
Language : English
Service kind : Complete Main
Default : Yes
Forced : No
Complexity index : 16
Number of dynamic objects : 15
Bed channel count : 1 channel
Bed channel configuration : LFE

Text #1
ID : 1
Format : UTF-8
Codec ID : S_TEXT/UTF8
Codec ID/Info : UTF-8 Plain Text
Duration : 35 min 47 s
Bit rate : 49 b/s
Count of elements : 453
Stream size : 13.0 KiB (0%)
Language : English
Default : Yes
Forced : No

Text #2
ID : 4
Format : UTF-8
Codec ID : S_TEXT/UTF8
Codec ID/Info : UTF-8 Plain Text
Duration : 38 min 48 s
Bit rate : 28 b/s
Count of elements : 238
Stream size : 8.15 KiB (0%)
Title : Danish
Language : Danish
Default : No
Forced : No

Text #3
ID : 5
Format : UTF-8
Codec ID : S_TEXT/UTF8
Codec ID/Info : UTF-8 Plain Text
Duration : 38 min 48 s
Bit rate : 29 b/s
Count of elements : 308
Stream size : 8.51 KiB (0%)
Title : German
Language : German
Default : No
Forced : No

Text #4
ID : 6
Format : UTF-8
Codec ID : S_TEXT/UTF8
Codec ID/Info : UTF-8 Plain Text
Duration : 38 min 48 s
Bit rate : 28 b/s
Count of elements : 309
Stream size : 8.12 KiB (0%)
Title : Spanish (Latin American)
Language : Spanish
Default : No
Forced : No

Text #5
ID : 7
Format : UTF-8
Codec ID : S_TEXT/UTF8
Codec ID/Info : UTF-8 Plain Text
Duration : 38 min 48 s
Bit rate : 28 b/s
Count of elements : 308
Stream size : 7.98 KiB (0%)
Title : Spanish
Language : Spanish
Default : No
Forced : No

Text #6
ID : 8
Format : UTF-8
Codec ID : S_TEXT/UTF8
Codec ID/Info : UTF-8 Plain Text
Duration : 38 min 48 s
Bit rate : 26 b/s
Count of elements : 309
Stream size : 7.62 KiB (0%)
Title : Finnish
Language : Finnish
Default : No
Forced : No

Text #7
ID : 9
Format : UTF-8
Codec ID : S_TEXT/UTF8
Codec ID/Info : UTF-8 Plain Text
Duration : 38 min 48 s
Bit rate : 28 b/s
Count of elements : 297
Stream size : 8.04 KiB (0%)
Title : French
Language : French
Default : No
Forced : No

Text #8
ID : 10
Format : UTF-8
Codec ID : S_TEXT/UTF8
Codec ID/Info : UTF-8 Plain Text
Duration : 38 min 48 s
Bit rate : 29 b/s
Count of elements : 309
Stream size : 8.25 KiB (0%)
Title : Italian
Language : Italian
Default : No
Forced : No

Text #9
ID : 11
Format : UTF-8
Codec ID : S_TEXT/UTF8
Codec ID/Info : UTF-8 Plain Text
Duration : 38 min 48 s
Bit rate : 29 b/s
Count of elements : 261
Stream size : 8.49 KiB (0%)
Title : Dutch
Language : Dutch
Default : No
Forced : No

Text #10
ID : 12
Format : UTF-8
Codec ID : S_TEXT/UTF8
Codec ID/Info : UTF-8 Plain Text
Duration : 38 min 48 s
Bit rate : 27 b/s
Count of elements : 309
Stream size : 7.78 KiB (0%)
Title : Norwegian
Language : Norwegian
Default : No
Forced : No

Text #11
ID : 13
Format : UTF-8
Codec ID : S_TEXT/UTF8
Codec ID/Info : UTF-8 Plain Text
Duration : 38 min 48 s
Bit rate : 28 b/s
Count of elements : 310
Stream size : 8.17 KiB (0%)
Title : Polish
Language : Polish
Default : No
Forced : No

Text #12
ID : 14
Format : UTF-8
Codec ID : S_TEXT/UTF8
Codec ID/Info : UTF-8 Plain Text
Duration : 38 min 48 s
Bit rate : 31 b/s
Count of elements : 309
Stream size : 8.90 KiB (0%)
Title : Portuguese (Brazilian)
Language : Portuguese
Default : No
Forced : No

Text #13
ID : 15
Format : UTF-8
Codec ID : S_TEXT/UTF8
Codec ID/Info : UTF-8 Plain Text
Duration : 38 min 48 s
Bit rate : 31 b/s
Count of elements : 309
Stream size : 8.86 KiB (0%)
Title : Portuguese
Language : Portuguese
Default : No
Forced : No

Text #14
ID : 16
Format : UTF-8
Codec ID : S_TEXT/UTF8
Codec ID/Info : UTF-8 Plain Text
Duration : 38 min 48 s
Bit rate : 28 b/s
Count of elements : 249
Stream size : 8.15 KiB (0%)
Title : Swedish
Language : Swedish
Default : No
Forced : No

We have no issue with individuals posting or re-uploading our torrents on a platform we aren't on. However, if this is something you'd like to do, please do so in a 'as-is' format. We ask that you do not create a new torrent, include all descriptions you see above including the SEV logo, tags, notes and screenshots.
If you'd like to become a permanent poster on a website we don't post to, feel free to get in contact with a Sublime Encoded Video member.

We are recruiting/training new members for SEV & seedbox providers as well as people to help out with subtitles.
As you already know, we deliver quality, so you know the standard.
If you're interested, feel free to contact any of the team members.

Files:

The Mandalorian S01E04 1080p AMZN WEBrip x265 DDP5 1 D0ct0rLew[SEV]
  • Contact SEV.txt (1.0 KB)
  • The Mandalorian S01E04 1080p AMZN WEBrip x265 DDP5 1 D0ct0rLew[SEV].mkv (1.6 GB)

There are currently no comments. Feel free to leave one :)

Code:

  • http://tracker3.itzmx.com:6961/announce
  • udp://denis.stalker.upeer.me:6969/announce
  • http://tracker.opentrackr.org:1337/announce
  • udp://tracker.opentrackr.org:1337/announce
  • udp://tracker.torrent.eu.org:451/announce
  • udp://tracker.leechers-paradise.org:6969/announce
  • udp://open.demonii.si:1337/announce
  • udp://9.rarbg.me:2720/announce
  • udp://explodie.org:6969/announce
  • udp://tracker.cyberia.is:6969/announce
  • udp://tracker.iamhansen.xyz:2000/announce
  • udp://ipv4.tracker.harry.lu:80/announce
  • http://open.acgnxtracker.com:80/announce
  • http://explodie.org:6969/announce
  • udp://9.rarbg.com:2710/announce
  • https://opentracker.xyz:443/announce
  • udp://tracker.uw0.xyz:6969/announce
  • https://1337.abcvg.info:443/announce
  • udp://9.rarbg.me:2780/announce
  • udp://9.rarbg.to:2760/announce
  • udp://9.rarbg.me:2740/announce
/08/e7/ff/08e7ffd6a1ad8052c7c702273b643766.js'>