Hotel Mumbai (2019) 720p BDRip x264 Hindi (HQ Line) Hindi Sub.

  • Category Movies
  • Type Bollywood
  • Language Hindi
  • Total size 1.0 GB
  • Uploaded By krishh1337
  • Downloads 29244
  • Last checked 3 weeks ago
  • Date uploaded 1 month ago
  • Seeders 423
  • Leechers 166

Hotel Mumbai

ThrillerDrama

In 2008 the Taj Mahal Palace Hotel in Mumbai becomes the target of a deadly attack by Pakistani militants. Dozens of people are held hostage as fire races through the building.

Infohash : BEC29A0375644C1333A5311B974A2150EDFD7222



Hotel Mumbai (2019):
R | 2h 3min | Drama, History, Thriller | 29 Nov 2019 (IND)

The true story of the Taj Hotel terrorist attack in Mumbai.
Hotel staff risk their lives to keep everyone safe as people make unthinkable sacrifices to protect themselves and their families.

Director: Anthony Maras
Writers: John Collee, Anthony Maras
Stars: Dev Patel, Armie Hammer, Nazanin Boniadi .

Format                      : Matroska
Format version              : Version 4
File size                   : 1.04 GiB
Duration                    : 2 h 2 min
Overall bit rate            : 1 208 kb/s

Video
ID                          : 1
Format                      : AVC
Format/Info                 : Advanced Video Codec
Format profile              : [email protected]
Format settings             : CABAC / 4 Ref Frames
Format settings, CABAC      : Yes
Format settings, ReFrames   : 4 frames
Codec ID                    : V_MPEG4/ISO/AVC
Duration                    : 2 h 2 min
Bit rate                    : 1 050 kb/s
Width                       : 1 280 pixels
Height                      : 534 pixels
Display aspect ratio        : 2.40:1
Original display aspect rat : 2.40:1
Frame rate mode             : Constant
Frame rate                  : 23.976 (24000/1001) FPS
Color space                 : YUV
Chroma subsampling          : 4:2:0
Bit depth                   : 8 bits
Scan type                   : Progressive
Bits/(Pixel*Frame)          : 0.064
Stream size                 : 923 MiB (87%)
Writing library             : x264 core 152

Audio #1
ID                          : 2
Format                      : AAC LC
Format/Info                 : Advanced Audio Codec Low Complexity
Codec ID                    : A_AAC-2
Duration                    : 2 h 2 min
Bit rate                    : 77.6 kb/s
Channel(s)                  : 2 channels
Channel layout              : L R
Sampling rate               : 44.1 kHz
Frame rate                  : 43.066 FPS (1024 SPF)
Compression mode            : Lossy
Delay relative to video     : -43 ms
Stream size                 : 68.2 MiB (6%)
Language                    : Hindi
Default                     : Yes
Forced                      : Yes

Audio #2
ID                          : 3
Format                      : AAC LC
Format/Info                 : Advanced Audio Codec Low Complexity
Codec ID                    : A_AAC-2
Duration                    : 2 h 2 min
Bit rate                    : 77.6 kb/s
Channel(s)                  : 2 channels
Channel layout              : L R
Sampling rate               : 44.1 kHz
Frame rate                  : 43.066 FPS (1024 SPF)
Compression mode            : Lossy
Delay relative to video     : -43 ms
Stream size                 : 68.2 MiB (6%)
Language                    : English
Default                     : No
Forced                      : No

Text #1
ID                          : 4
Format                      : UTF-8
Codec ID                    : S_TEXT/UTF8
Codec ID/Info               : UTF-8 Plain Text
Duration                    : 1 h 55 min
Bit rate                    : 39 b/s
Count of elements           : 1124
Stream size                 : 33.0 KiB (0%)
Language                    : English
Default                     : No
Forced                      : No

Text #2
ID                          : 5
Format                      : UTF-8
Codec ID                    : S_TEXT/UTF8
Codec ID/Info               : UTF-8 Plain Text
Duration                    : 1 h 55 min
Bit rate                    : 95 b/s
Count of elements           : 1124
Stream size                 : 81.0 KiB (0%)
Language                    : Hindi
Default                     : Yes
Forced                      : Yes

Files:

  • Hotel Mumbai (2018) 720p BDRip x264 Hindi (HQ Line) Hindi Sub.mkv (1.0 GB)

Comments

Code:

  • udp://denis.stalker.upeer.me:6969/announce
  • udp://9.rarbg.to:2800/announce
  • http://tracker3.itzmx.com:6961/announce
  • http://tracker1.itzmx.com:8080/announce
  • http://tracker.electro-torrent.pl:80/announce
  • udp://eddie4.nl:6969/announce
  • udp://thetracker.org:80/announce
  • udp://bt.xxx-tracker.com:2710/announce
  • http://retracker.gorcomnet.ru/announce
  • udp://tracker.coppersurfer.tk:6969/announce
  • udp://tracker.opentrackr.org:1337/announce
  • udp://tracker.open-internet.nl:6969/announce
  • udp://tracker.opentrackr.org:1337/announce
  • udp://tracker.port443.xyz:6969/announce
  • udp://185.225.17.100:1337/announce
  • udp://public.popcorn-tracker.org:6969/announce
  • http://atrack.pow7.com/announce
  • http://bt.henbt.com:2710/announce
  • http://bt.pusacg.org:8080/announce
  • http://bt2.careland.com.cn:6969/announce
  • http://explodie.org:6969/announce
  • http://mgtracker.org:2710/announce
  • http://mgtracker.org:6969/announce
  • http://open.acgtracker.com:1096/announce
  • http://tracker.flashtorrents.org:6969/announce
  • http://tracker.kicks-ass.net/announce
  • http://tracker.internetwarriors.net:1337/announce
  • http://tracker.opentrackr.org:1337/announce
  • http://tracker.kicks-ass.net:80/announce
  • udp://tracker.bittor.pw:1337/announce
  • udp://tracker.coppersurfer.tk:6969
/08/e7/ff/08e7ffd6a1ad8052c7c702273b643766.js'>