Joker (2019) [1080p x265 HEVC 10bit BluRay Atmos TrueHD 7.1] [Pro...

  • Category Movies
  • Type HEVC/x265
  • Language English
  • Total size 10.8 GB
  • Uploaded By Prof
  • Downloads 608
  • Last checked 1 month ago
  • Date uploaded 2 months ago
  • Seeders 28
  • Leechers 17

Joker

CrimeThrillerDrama

During the 1980s, a failed stand-up comedian is driven insane and turns to a life of crime and chaos in Gotham City while becoming an infamous psychopathic crime figure.

Infohash : 5A869ADE02D83F15A7510F4BEE78CA34B9154558



In Gotham City, mentally troubled comedian Arthur Fleck is disregarded and mistreated by society. He then embarks on a downward spiral of revolution and bloody crime. This path brings him face-to-face with his alter-ego: the Joker.

Director: Todd Phillips
Writers: Todd Phillips, Scott Silver
Stars: Joaquin Phoenix, Robert De Niro, Zazie Beetz

IMDB







Format : Matroska
Format version : Version 4
File size : 10.8 GiB
Duration : 2 h 1 min
Overall bit rate mode : Variable
Overall bit rate : 12.7 Mb/s
Movie name : Joker (2019)
Encoded date : UTC 2019-12-26 11:09:32
Writing application : mkvmerge v41.0.0 ('Smarra') 64-bit
Writing library : libebml v1.3.9 + libmatroska v1.5.2

Video
ID : 1
Format : HEVC
Format/Info : High Efficiency Video Coding
Format profile : Main [email protected]@Main
Codec ID : V_MPEGH/ISO/HEVC
Duration : 2 h 1 min
Bit rate : 7 555 kb/s
Width : 1 920 pixels
Height : 1 080 pixels
Display aspect ratio : 16:9
Frame rate mode : Constant
Frame rate : 23.976 (24000/1001) FPS
Color space : YUV
Chroma subsampling : 4:2:0
Bit depth : 10 bits
Bits/(Pixel*Frame) : 0.152
Stream size : 6.43 GiB (59%)
Writing library : x265 3.2.1+2-09f3b1d9349a:[Windows][MSVC 1923][64 bit] 10bit
Encoding settings : cpuid=1111039 / frame-threads=3 / numa-pools=12 / wpp / no-pmode / no-pme / no-psnr / no-ssim / log-level=2 / input-csp=1 / input-res=1920x1080 / interlace=0 / total-frames=175243 / level-idc=0 / high-tier=1 / uhd-bd=0 / ref=4 / no-allow-non-conformance / no-repeat-headers / annexb / no-aud / no-hrd / info / hash=0 / no-temporal-layers / open-gop / min-keyint=23 / keyint=250 / gop-lookahead=0 / bframes=8 / b-adapt=2 / b-pyramid / bframe-bias=0 / rc-lookahead=80 / lookahead-slices=6 / scenecut=40 / radl=0 / no-splice / no-intra-refresh / ctu=64 / min-cu-size=8 / rect / no-amp / max-tu-size=32 / tu-inter-depth=1 / tu-intra-depth=1 / limit-tu=0 / rdoq-level=2 / dynamic-rd=0.00 / no-ssim-rd / signhide / no-tskip / nr-intra=0 / nr-inter=0 / no-constrained-intra / strong-intra-smoothing / max-merge=3 / limit-refs=3 / limit-modes / me=3 / subme=3 / merange=57 / temporal-mvp / no-hme / weightp / no-weightb / no-analyze-src-pics / deblock=0:0 / sao / no-sao-non-deblock / rd=4 / selective-sao=4 / no-early-skip / rskip / no-fast-intra / no-tskip-fast / no-cu-lossless / no-b-intra / no-splitrd-skip / rdpenalty=0 / psy-rd=0.30 / psy-rdoq=1.00 / no-rd-refine / no-lossless / cbqpoffs=0 / crqpoffs=0 / rc=crf / crf=18.0 / qcomp=0.60 / qpstep=4 / stats-write=0 / stats-read=0 / ipratio=1.40 / pbratio=1.30 / aq-mode=3 / aq-strength=1.00 / cutree / zone-count=0 / no-strict-cbr / qg-size=32 / no-rc-grain / qpmax=69 / qpmin=0 / no-const-vbv / sar=0 / overscan=0 / videoformat=5 / range=0 / colorprim=2 / transfer=2 / colormatrix=2 / chromaloc=0 / display-window=0 / cll=0,0 / min-luma=0 / max-luma=1023 / log2-max-poc-lsb=8 / vui-timing-info / vui-hrd-info / slices=1 / no-opt-qp-pps / no-opt-ref-list-length-pps / no-multi-pass-opt-rps / scenecut-bias=0.05 / no-opt-cu-delta-qp / no-aq-motion / no-hdr / no-hdr-opt / no-dhdr10-opt / no-idr-recovery-sei / analysis-reuse-level=5 / scale-factor=0 / refine-intra=0 / refine-inter=0 / refine-mv=1 / refine-ctu-distortion=0 / no-limit-sao / ctu-info=0 / no-lowpass-dct / refine-analysis-type=0 / copy-pic=1 / max-ausize-factor=1.0 / no-dynamic-refine / no-single-sei / no-hevc-aq / no-svt / no-field / qp-adaptation-range=1.00
Default : Yes
Forced : No

Audio #1
ID : 2
Format : AAC LC
Format/Info : Advanced Audio Codec Low Complexity
Codec ID : A_AAC-2
Duration : 2 h 1 min
Bit rate : 1 240 kb/s
Channel(s) : 8 channels
Channel layout : C L R Ls Rs Lb Rb LFE
Sampling rate : 48.0 kHz
Frame rate : 46.875 FPS (1024 SPF)
Compression mode : Lossy
Delay relative to video : 9 ms
Stream size : 1.05 GiB (10%)
Language : English
Default : No
Forced : No

Audio #2
ID : 3
Format : MLP FBA 16-ch
Format/Info : Meridian Lossless Packing FBA with 16-channel presentation
Commercial name : Dolby TrueHD with Dolby Atmos
Codec ID : A_TRUEHD
Duration : 2 h 1 min
Bit rate mode : Variable
Bit rate : 3 819 kb/s
Maximum bit rate : 7 158 kb/s
Channel(s) : 8 channels
Channel layout : L R C LFE Ls Rs Lb Rb
Sampling rate : 48.0 kHz
Frame rate : 1 200.000 FPS (40 SPF)
Compression mode : Lossless
Stream size : 3.25 GiB (30%)
Title : Dolby TrueHD/Atmos Audio / 7.1-Atmos / 48 kHz / 3819 kbps / 24-bit
Language : English
Default : Yes
Forced : No
Number of dynamic objects : 15
Bed channel count : 1 channel
Bed channel configuration : LFE

Text #1
ID : 4
Format : PGS
Muxing mode : zlib
Codec ID : S_HDMV/PGS
Codec ID/Info : Picture based subtitle format used on BDs/HD-DVDs
Duration : 1 h 58 min
Bit rate : 35.8 kb/s
Count of elements : 3480
Stream size : 30.2 MiB (0%)
Title : SDH
Language : English
Default : No
Forced : No

Text #2
ID : 5
Format : PGS
Muxing mode : zlib
Codec ID : S_HDMV/PGS
Codec ID/Info : Picture based subtitle format used on BDs/HD-DVDs
Duration : 2 h 1 min
Bit rate : 21.6 kb/s
Count of elements : 2230
Stream size : 18.7 MiB (0%)
Language : French
Default : No
Forced : No

Text #3
ID : 6
Format : PGS
Muxing mode : zlib
Codec ID : S_HDMV/PGS
Codec ID/Info : Picture based subtitle format used on BDs/HD-DVDs
Duration : 1 h 57 min
Bit rate : 26.1 kb/s
Count of elements : 2404
Stream size : 21.9 MiB (0%)
Title : Brazilian
Language : Portuguese
Default : No
Forced : No

Text #4
ID : 7
Format : PGS
Muxing mode : zlib
Codec ID : S_HDMV/PGS
Codec ID/Info : Picture based subtitle format used on BDs/HD-DVDs
Duration : 1 h 57 min
Bit rate : 27.1 kb/s
Count of elements : 2384
Stream size : 22.7 MiB (0%)
Title : Latin American
Language : Spanish
Default : No
Forced : No

Menu
00:00:00.000 : en:Studio Logo
00:00:15.668 : en:Makeup
00:01:32.668 : en:Broken Sign
00:03:43.668 : en:Therapy
00:07:42.668 : en:Bus
00:09:15.668 : en:Meeting Murray
00:15:21.668 : en:Protection
00:19:13.668 : en:Enter Sophie
00:21:01.668 : en:Bath
00:23:34.668 : en:Following
00:24:53.668 : en:Comedy Scout
00:26:01.668 : en:Invite
00:27:59.668 : en:Hospital Gig
00:29:23.668 : en:Subway Scuffle
00:34:10.668 : en:Fleeing
00:36:14.668 : en:First Kiss
00:36:46.668 : en:Punching Out
00:38:14.668 : en:Wayne Interview
00:39:56.668 : en:Negative Thoughts
00:42:14.668 : en:Open Mic
00:45:15.668 : en:Date
00:46:21.668 : en:Letter to Wayne
00:50:23.668 : en:Clipping
00:51:12.668 : en:Wayne Manor
00:55:16.668 : en:Emergency
00:56:19.668 : en:Detectives
00:58:32.668 : en:Arthur on T.V.
01:01:01.668 : en:Protest Coverage
01:02:18.668 : en:Meeting Wayne
01:07:11.668 : en:Invitation
01:09:36.668 : en:Arkham
01:13:26.668 : en:Penny's File
01:15:41.668 : en:Sophie's Place
01:19:49.668 : en:Life's a Comedy
01:22:12.668 : en:Practice
01:24:28.668 : en:Randall and Gary visit Arthur
01:30:15.668 : en:Stairwell Waltz
01:34:51.668 : en:Dressing Room
01:37:02.668 : en:Arthur's Big Moment
01:46:35.668 : en:Riot
01:49:05.668 : en:Crime Alley
01:50:02.668 : en:Joker's Fans
01:52:33.668 : en:Thinking of a Joke
01:55:39.668 : en:End Credits

Source:



Next movie:



Files:

  • Joker (2019) [1080p x265 HEVC 10bit BluRay Atmos TrueHD 7.1] [Prof].mkv (10.8 GB)

Comments

Code:

  • udp://tracker.coppersurfer.tk:6969/announce
  • udp://tracker.torrent.eu.org:451/announce
  • udp://tracker.tiny-vps.com:6969/announce
  • udp://denis.stalker.upeer.me:6969/announce
  • udp://tracker.cyberia.is:6969/announce
  • udp://open.stealth.si:80/announce