Star Wars Episode IV - A New Hope (1977) (1080p DSNP WEBRip x265 ...

  • Category Movies
  • Type HEVC/x265
  • Language English
  • Total size 2.6 GB
  • Uploaded By UTRCorp
  • Downloads 250
  • Last checked 57 minutes ago
  • Date uploaded 3 days ago
  • Seeders 21
  • Leechers 6

Star Wars: Episode IV - A New Hope

ActionAdventureScience Fiction

Princess Leia is captured and held hostage by the evil Imperial forces in their effort to take over the galactic Empire. Venturesome Luke Skywalker and dashing captain Han Solo team together with the loveable robot duo R2-D2 and C-3PO to rescue the beautiful princess and restore peace and justice in the Empire.

Infohash : 3502D8F6F126F0FA888BA3969ACE2E7315534260


Media Information

Code:

General
Format : Matroska
Format version : Version 4 / Version 2
File size : 2.59 GiB
Duration : 2 h 4 min
Overall bit rate : 2 971 kb/s
Encoded date : UTC 2019-12-29 04:30:39
Writing application : mkvmerge v40.0.0 ('Old Town Road + Pony') 64-bit
Writing library : libebml v1.3.9 + libmatroska v1.5.2
Cover : Yes
Attachments : FRADMCN.ttf / cover.jpg
Writing frontend : StaxRip v2.0.2.0, Encoded by JoyBell

Video
ID : 1
Format : HEVC
Format/Info : High Efficiency Video Coding
Format profile : Main [email protected]@Main
Codec ID : V_MPEGH/ISO/HEVC
Duration : 2 h 4 min
Bit rate : 2 384 kb/s
Width : 1 920 pixels
Height : 800 pixels
Display aspect ratio : 2.40:1
Frame rate mode : Constant
Frame rate : 23.976 (24000/1001) FPS
Color space : YUV
Chroma subsampling : 4:2:0
Bit depth : 10 bits
Bits/(Pixel*Frame) : 0.065
Stream size : 2.08 GiB (80%)
Writing library : x265 3.2+9-971180b100f8:[Windows][MSVC 1923][64 bit] 10bit
Encoding settings : cpuid=1111039 / frame-threads=4 / numa-pools=16 / wpp / no-pmode / no-pme / no-psnr / ssim / log-level=2 / input-csp=1 / input-res=1920x800 / interlace=0 / total-frames=179394 / level-idc=0 / high-tier=1 / uhd-bd=0 / ref=4 / no-allow-non-conformance / no-repeat-headers / annexb / no-aud / no-hrd / info / hash=0 / no-temporal-layers / open-gop / min-keyint=23 / keyint=250 / gop-lookahead=0 / bframes=8 / b-adapt=2 / b-pyramid / bframe-bias=20 / rc-lookahead=80 / lookahead-slices=4 / scenecut=40 / radl=0 / no-splice / no-intra-refresh / ctu=64 / min-cu-size=8 / rect / no-amp / max-tu-size=32 / tu-inter-depth=1 / tu-intra-depth=1 / limit-tu=0 / rdoq-level=2 / dynamic-rd=0.00 / ssim-rd / signhide / no-tskip / nr-intra=0 / nr-inter=0 / constrained-intra / strong-intra-smoothing / max-merge=5 / limit-refs=3 / limit-modes / me=3 / subme=5 / merange=57 / temporal-mvp / no-frame-dup / no-hme / weightp / no-weightb / no-analyze-src-pics / deblock=-2:-2 / sao / sao-non-deblock / rd=4 / selective-sao=4 / early-skip / rskip / no-fast-intra / no-tskip-fast / no-cu-lossless / no-b-intra / splitrd-skip / rdpenalty=0 / psy-rd=2.50 / psy-rdoq=1.50 / no-rd-refine / no-lossless / cbqpoffs=0 / crqpoffs=0 / rc=crf / crf=21.5 / qcomp=0.60 / qpstep=4 / stats-write=0 / stats-read=0 / ipratio=1.40 / pbratio=1.30 / aq-mode=3 / aq-strength=0.40 / cutree / zone-count=0 / no-strict-cbr / qg-size=32 / no-rc-grain / qpmax=69 / qpmin=0 / no-const-vbv / sar=0 / overscan=0 / videoformat=5 / range=0 / colorprim=2 / transfer=2 / colormatrix=1 / chromaloc=0 / display-window=0 / cll=0,0 / min-luma=0 / max-luma=1023 / log2-max-poc-lsb=8 / vui-timing-info / vui-hrd-info / slices=1 / no-opt-qp-pps / no-opt-ref-list-length-pps / no-multi-pass-opt-rps / scenecut-bias=0.05 / no-opt-cu-delta-qp / no-aq-motion / no-hdr / no-hdr-opt / no-dhdr10-opt / no-idr-recovery-sei / analysis-reuse-level=5 / scale-factor=0 / refine-intra=0 / refine-inter=0 / refine-mv=1 / refine-ctu-distortion=0 / no-limit-sao / ctu-info=0 / no-lowpass-dct / refine-analysis-type=0 / copy-pic=1 / max-ausize-factor=1.0 / no-dynamic-refine / no-single-sei / no-hevc-aq / no-svt / no-field / qp-adaptation-range=1.00
Default : Yes
Forced : No
Color range : Limited
Matrix coefficients : BT.709

Audio #1
ID : 2
Format : AAC
Format/Info : Advanced Audio Codec
Format profile : LC
Codec ID : A_AAC
Duration : 2 h 4 min
Bit rate : 364 kb/s
Channel(s) : 8 channels
Channel positions : Front: L C R, Side: L R, Back: L R, LFE
Sampling rate : 48.0 kHz
Frame rate : 46.875 FPS (1024 spf)
Compression mode : Lossy
Delay relative to video : 9 ms
Stream size : 325 MiB (12%)
Language : English
Default : No
Forced : No

Audio #2
ID : 3
Format : AAC
Format/Info : Advanced Audio Codec
Format profile : HE-AAC / LC
Codec ID : A_AAC
Duration : 2 h 4 min
Bit rate : 48.0 kb/s
Channel(s) : 2 channels
Channel positions : Front: L R
Sampling rate : 48.0 kHz / 24.0 kHz
Frame rate : 23.438 FPS (1024 spf)
Compression mode : Lossy
Delay relative to video : 31 ms
Stream size : 41.9 MiB (2%)
Title : Commentary
Language : English
Default : No
Forced : No

Audio #3
ID : 4
Format : AAC
Format/Info : Advanced Audio Codec
Format profile : HE-AAC / LC
Codec ID : A_AAC
Duration : 2 h 4 min
Bit rate : 48.0 kb/s
Channel(s) : 2 channels
Channel positions : Front: L R
Sampling rate : 48.0 kHz / 24.0 kHz
Frame rate : 23.438 FPS (1024 spf)
Compression mode : Lossy
Delay relative to video : 31 ms
Stream size : 41.6 MiB (2%)
Title : Commentary
Language : English
Default : No
Forced : No

Subtitle #1
ID : 5
Format : VobSub
Muxing mode : zlib
Codec ID : S_VOBSUB
Codec ID/Info : Picture based subtitle format used on DVDs
Duration : 2 h 1 min
Bit rate : 10.5 kb/s
Count of elements : 1302
Stream size : 9.13 MiB (0%)
Language : English
Default : No
Forced : No

Subtitle #2
ID : 6
Format : VobSub
Muxing mode : zlib
Codec ID : S_VOBSUB
Codec ID/Info : Picture based subtitle format used on DVDs
Duration : 2 h 2 min
Bit rate : 11.2 kb/s
Count of elements : 1725
Stream size : 9.79 MiB (0%)
Language : English
Default : No
Forced : No

Subtitle #3
ID : 7
Format : VobSub
Muxing mode : zlib
Codec ID : S_VOBSUB
Codec ID/Info : Picture based subtitle format used on DVDs
Duration : 1 h 14 min
Bit rate : 209 b/s
Count of elements : 29
Stream size : 114 KiB (0%)
Language : English
Default : No
Forced : No

Subtitle #4
ID : 8
Format : VobSub
Muxing mode : zlib
Codec ID : S_VOBSUB
Codec ID/Info : Picture based subtitle format used on DVDs
Duration : 2 h 4 min
Bit rate : 8 735 b/s
Count of elements : 1112
Stream size : 7.77 MiB (0%)
Language : Bulgarian
Default : No
Forced : No

Subtitle #5
ID : 9
Format : VobSub
Muxing mode : zlib
Codec ID : S_VOBSUB
Codec ID/Info : Picture based subtitle format used on DVDs
Duration : 2 h 4 min
Bit rate : 8 589 b/s
Count of elements : 1389
Stream size : 7.64 MiB (0%)
Language : Chinese
Default : No
Forced : No

Subtitle #6
ID : 10
Format : VobSub
Muxing mode : zlib
Codec ID : S_VOBSUB
Codec ID/Info : Picture based subtitle format used on DVDs
Duration : 2 h 4 min
Bit rate : 8 359 b/s
Count of elements : 1531
Stream size : 7.43 MiB (0%)
Language : Chinese
Default : No
Forced : No

Subtitle #7
ID : 11
Format : VobSub
Muxing mode : zlib
Codec ID : S_VOBSUB
Codec ID/Info : Picture based subtitle format used on DVDs
Duration : 2 h 4 min
Bit rate : 7 815 b/s
Count of elements : 1175
Stream size : 6.95 MiB (0%)
Language : Croatian
Default : No
Forced : No

Subtitle #8
ID : 12
Format : VobSub
Muxing mode : zlib
Codec ID : S_VOBSUB
Codec ID/Info : Picture based subtitle format used on DVDs
Duration : 2 h 4 min
Bit rate : 7 379 b/s
Count of elements : 1200
Stream size : 6.56 MiB (0%)
Language : Czech
Default : No
Forced : No

Subtitle #9
ID : 13
Format : VobSub
Muxing mode : zlib
Codec ID : S_VOBSUB
Codec ID/Info : Picture based subtitle format used on DVDs
Duration : 2 h 1 min
Bit rate : 7 509 b/s
Count of elements : 1015
Stream size : 6.55 MiB (0%)
Language : Danish
Default : No
Forced : No

Subtitle #10
ID : 14
Format : VobSub
Muxing mode : zlib
Codec ID : S_VOBSUB
Codec ID/Info : Picture based subtitle format used on DVDs
Duration : 2 h 4 min
Bit rate : 6 587 b/s
Count of elements : 1183
Stream size : 5.86 MiB (0%)
Language : Dutch
Default : No
Forced : No

Subtitle #11
ID : 15
Format : VobSub
Muxing mode : zlib
Codec ID : S_VOBSUB
Codec ID/Info : Picture based subtitle format used on DVDs
Duration : 2 h 1 min
Bit rate : 7 255 b/s
Count of elements : 1027
Stream size : 6.33 MiB (0%)
Language : Finnish
Default : No
Forced : No

Subtitle #12
ID : 16
Format : VobSub
Muxing mode : zlib
Codec ID : S_VOBSUB
Codec ID/Info : Picture based subtitle format used on DVDs
Duration : 2 h 1 min
Bit rate : 8 671 b/s
Count of elements : 1287
Stream size : 7.56 MiB (0%)
Language : French
Default : No
Forced : No

Subtitle #13
ID : 17
Format : VobSub
Muxing mode : zlib
Codec ID : S_VOBSUB
Codec ID/Info : Picture based subtitle format used on DVDs
Duration : 2 h 1 min
Bit rate : 9 944 b/s
Count of elements : 1298
Stream size : 8.67 MiB (0%)
Language : Italian
Default : No
Forced : No

Subtitle #14
ID : 18
Format : VobSub
Muxing mode : zlib
Codec ID : S_VOBSUB
Codec ID/Info : Picture based subtitle format used on DVDs
Duration : 1 h 58 min
Bit rate : 4 977 b/s
Count of elements : 1282
Stream size : 4.20 MiB (0%)
Language : Japanese
Default : No
Forced : No

Subtitle #15
ID : 19
Format : VobSub
Muxing mode : zlib
Codec ID : S_VOBSUB
Codec ID/Info : Picture based subtitle format used on DVDs
Duration : 2 h 4 min
Bit rate : 7 684 b/s
Count of elements : 1380
Stream size : 6.83 MiB (0%)
Language : Korean
Default : No
Forced : No

Subtitle #16
ID : 20
Format : VobSub
Muxing mode : zlib
Codec ID : S_VOBSUB
Codec ID/Info : Picture based subtitle format used on DVDs
Duration : 2 h 1 min
Bit rate : 6 559 b/s
Count of elements : 1016
Stream size : 5.72 MiB (0%)
Language : Norwegian Bokmal
Default : No
Forced : No

Subtitle #17
ID : 21
Format : VobSub
Muxing mode : zlib
Codec ID : S_VOBSUB
Codec ID/Info : Picture based subtitle format used on DVDs
Duration : 2 h 1 min
Bit rate : 9 644 b/s
Count of elements : 1313
Stream size : 8.41 MiB (0%)
Language : Portuguese
Default : No
Forced : No

Subtitle #18
ID : 22
Format : VobSub
Muxing mode : zlib
Codec ID : S_VOBSUB
Codec ID/Info : Picture based subtitle format used on DVDs
Duration : 2 h 4 min
Bit rate : 11.0 kb/s
Count of elements : 1317
Stream size : 9.79 MiB (0%)
Language : Romanian
Default : No
Forced : No

Subtitle #19
ID : 23
Format : VobSub
Muxing mode : zlib
Codec ID : S_VOBSUB
Codec ID/Info : Picture based subtitle format used on DVDs
Duration : 2 h 4 min
Bit rate : 11.8 kb/s
Count of elements : 1343
Stream size : 10.5 MiB (0%)
Language : Russian
Default : No
Forced : No

Subtitle #20
ID : 24
Format : VobSub
Muxing mode : zlib
Codec ID : S_VOBSUB
Codec ID/Info : Picture based subtitle format used on DVDs
Duration : 2 h 4 min
Bit rate : 9 209 b/s
Count of elements : 1316
Stream size : 8.19 MiB (0%)
Language : Slovenian
Default : No
Forced : No

Subtitle #21
ID : 25
Format : VobSub
Muxing mode : zlib
Codec ID : S_VOBSUB
Codec ID/Info : Picture based subtitle format used on DVDs
Duration : 2 h 1 min
Bit rate : 9 317 b/s
Count of elements : 1304
Stream size : 8.12 MiB (0%)
Language : Spanish
Default : No
Forced : No

Subtitle #22
ID : 26
Format : VobSub
Muxing mode : zlib
Codec ID : S_VOBSUB
Codec ID/Info : Picture based subtitle format used on DVDs
Duration : 2 h 1 min
Bit rate : 7 127 b/s
Count of elements : 1019
Stream size : 6.21 MiB (0%)
Language : Swedish
Default : No
Forced : No

Subtitle #23
ID : 27
Format : VobSub
Muxing mode : zlib
Codec ID : S_VOBSUB
Codec ID/Info : Picture based subtitle format used on DVDs
Duration : 2 h 4 min
Bit rate : 7 504 b/s
Count of elements : 1470
Stream size : 6.67 MiB (0%)
Language : Thai
Default : No
Forced : No

Subtitle #24
ID : 28
Format : VobSub
Muxing mode : zlib
Codec ID : S_VOBSUB
Codec ID/Info : Picture based subtitle format used on DVDs
Duration : 2 h 4 min
Bit rate : 10.3 kb/s
Count of elements : 1312
Stream size : 9.20 MiB (0%)
Language : Turkish
Default : No
Forced : No

Subtitle #25
ID : 29
Format : UTF-8
Codec ID : S_TEXT/UTF8
Codec ID/Info : UTF-8 Plain Text
Duration : 1 h 54 min
Bit rate : 77 b/s
Count of elements : 1066
Stream size : 65.4 KiB (0%)
Language : Arabic
Default : No
Forced : No

Subtitle #26
ID : 30
Format : UTF-8
Codec ID : S_TEXT/UTF8
Codec ID/Info : UTF-8 Plain Text
Duration : 1 h 58 min
Bit rate : 99 b/s
Count of elements : 1570
Stream size : 86.1 KiB (0%)
Language : Persian
Default : No
Forced : No

Subtitle #27
ID : 31
Format : UTF-8
Codec ID : S_TEXT/UTF8
Codec ID/Info : UTF-8 Plain Text
Duration : 2 h 1 min
Bit rate : 65 b/s
Count of elements : 1298
Stream size : 58.5 KiB (0%)
Language : German
Default : No
Forced : No

Subtitle #28
ID : 32
Format : UTF-8
Codec ID : S_TEXT/UTF8
Codec ID/Info : UTF-8 Plain Text
Duration : 1 h 58 min
Bit rate : 102 b/s
Count of elements : 1254
Stream size : 88.3 KiB (0%)
Language : Greek
Default : No
Forced : No

Subtitle #29
ID : 33
Format : UTF-8
Codec ID : S_TEXT/UTF8
Codec ID/Info : UTF-8 Plain Text
Duration : 2 h 0 min
Bit rate : 80 b/s
Count of elements : 1283
Stream size : 70.6 KiB (0%)
Language : Hebrew
Default : No
Forced : No

Subtitle #30
ID : 34
Format : UTF-8
Codec ID : S_TEXT/UTF8
Codec ID/Info : UTF-8 Plain Text
Duration : 1 h 59 min
Bit rate : 65 b/s
Count of elements : 1610
Stream size : 57.2 KiB (0%)
Language : Indonesian
Default : No
Forced : No

Subtitle #31
ID : 35
Format : UTF-8
Codec ID : S_TEXT/UTF8
Codec ID/Info : UTF-8 Plain Text
Duration : 1 h 58 min
Bit rate : 85 b/s
Count of elements : 1313
Stream size : 74.1 KiB (0%)
Language : Vietnamese
Default : No
Forced : No

Menu
00:00:00.000 : en:00:00:00.000
00:00:21.021 : en:00:00:21.021
00:01:53.405 : en:00:01:53.405
00:04:52.792 : en:00:04:52.792
00:07:28.281 : en:00:07:28.281
00:08:54.868 : en:00:08:54.868
00:11:21.389 : en:00:11:21.389
00:15:40.231 : en:00:15:40.231
00:19:40.179 : en:00:19:40.179
00:23:33.203 : en:00:23:33.203
00:25:32.614 : en:00:25:32.614
00:27:45.497 : en:00:27:45.497
00:29:12.709 : en:00:29:12.709
00:32:34.077 : en:00:32:34.077
00:34:53.008 : en:00:34:53.008
00:36:54.212 : en:00:36:54.212
00:39:05.635 : en:00:39:05.635
00:41:42.291 : en:00:41:42.291
00:42:31.549 : en:00:42:31.549
00:44:51.731 : en:00:44:51.731
00:47:52.620 : en:00:47:52.620
00:49:57.995 : en:00:49:57.995
00:51:13.696 : en:00:51:13.696
00:52:40.741 : en:00:52:40.741
00:54:12.332 : en:00:54:12.332
00:56:59.916 : en:00:56:59.916
00:59:14.176 : en:00:59:14.176
01:03:10.829 : en:01:03:10.829
01:06:16.472 : en:01:06:16.472
01:08:21.973 : en:01:08:21.973
01:12:32.390 : en:01:12:32.390
01:14:12.657 : en:01:14:12.657
01:17:13.712 : en:01:17:13.712
01:19:09.328 : en:01:19:09.328
01:21:29.384 : en:01:21:29.384
01:25:00.220 : en:01:25:00.220
01:27:02.092 : en:01:27:02.092
01:29:56.182 : en:01:29:56.182
01:33:48.456 : en:01:33:48.456
01:36:39.877 : en:01:36:39.877
01:38:06.756 : en:01:38:06.756
01:39:37.513 : en:01:39:37.513
01:41:24.996 : en:01:41:24.996
01:42:37.401 : en:01:42:37.401
01:45:02.630 : en:01:45:02.630
01:49:42.785 : en:01:49:42.785
01:55:18.912 : en:01:55:18.912
01:57:47.394 : en:01:57:47.394
01:58:28.518 : en:01:58:28.518
02:00:14.499 : en:02:00:14.499



Source Information

Code:

Release:
Star Wars Episode IV - A New Hope (1977) 2160p HDR Disney WEBRip DTS-HD MA 6.1 x265-TrollUHD.mkv (19.94 GBs)



Code:


Note From UTR
Whilst we are happy for our releases to be re-posted on a platform we aren't on, please do so in an 'as-is' format. We ask that you do not create a new torrent, include all descriptions you see above including the UTR logo, tags, notes and screenshots. If you'd like to become a permanent poster on a website we don't post to, feel free to get in contact with a UTR member.
If possible please donate for seedboxes.
BTC - 1QA5fum5AyXvWzdVCkQzUNvw3Ef15fHRaR
Monero - 8AuksPSzY7fen3HHT1a2342PgVy4J93MKfXG3AAcayV76miTyJ3sNfn38srwrpLirGfeR5DwhTL8GW8pdQgT7bZcJ25ynMx
Dash - Xh4mNs6uwZdpCEX2HSEVwGvPD7yKxZ1Ccd
Ethereum - 0x51c06c94e74c16735a7a6e841ad29fc90a84eb1f



Files:

  • Star Wars Episode IV - A New Hope (1977) [1080p x265 q22 FS87 Joy].mkv (2.6 GB)

Comments

Code:

  • udp://tracker.opentrackr.org:1337/announce
  • udp://tracker.coppersurfer.tk:6969/announce
  • udp://9.rarbg.com:2710/announce
  • udp://9.rarbg.to:2710/announce
  • udp://tracker.torrent.eu.org:451/announce
  • udp://exodus.desync.com:6969/announce
  • udp://tracker.tiny-vps.com:6969/announce
  • udp://open.demonii.si:1337/announce
  • udp://tracker.internetwarriors.net:1337/announce
/08/e7/ff/08e7ffd6a1ad8052c7c702273b643766.js'>