Manmadhudu 2 (2019) UNCUT 720p WEB-HDRip x264 Esubs [Dual Audio] ...

  • Category Movies
  • Type Dubs/Dual Audio
  • Language Hindi
  • Total size 1.6 GB
  • Uploaded By DESIRE123
  • Downloads 26907
  • Last checked 7 months ago
  • Date uploaded 7 months ago
  • Seeders 318
  • Leechers 141

Manmadhudu 2

ComedyRomance

Having had his heart broken, Sambasiva Rao AKA Sam decides that he doesn’t believe in commitment or marriage, and instead deals only in one-night stands. When his family gives him an ultimatum to get married, he ropes in Avanthika to act as his fiance and ditch him on the wedding day. Little does he know that his plan could have serious consequences.

Infohash : E101A8D621BD554CEE263F6710ABAA2BEC7B1984

Manmadhudu 2 (2019) UNCUT 720p WEB-HDRip x264 Esubs [Dual Audio] [Hindi DD 2.0 - Telugu 2.0] - 1.6 GB


This Movie Encoded by DesireMoVies.Email


POSTER



INFO


General
Format                      : Matroska
Format version              : Version 4
File size                   : 1.62 GiB
Duration                    : 2 h 31 min
Overall bit rate            : 1 522 kb/s

Video
ID                          : 1
Format                      : AVC
Format/Info                 : Advanced Video Codec
Format profile              : [email protected]
Format settings             : CABAC / 8 Ref Frames
Format settings, CABAC      : Yes
Format settings, Reference  : 8 frames
Codec ID                    : V_MPEG4/ISO/AVC
Duration                    : 2 h 31 min
Bit rate                    : 1 200 kb/s
Width                       : 1 280 pixels
Height                      : 548 pixels
Display aspect ratio        : 2.35:1
Frame rate mode             : Constant
Frame rate                  : 24.000 FPS
Color space                 : YUV
Chroma subsampling          : 4:2:0
Bit depth                   : 8 bits
Scan type                   : Progressive
Bits/(Pixel*Frame)          : 0.071
Stream size                 : 1.24 GiB (77%)
Default                     : Yes
Forced                      : No

Audio #1
ID                          : 2
Format                      : AC-3
Format/Info                 : Audio Coding 3
Commercial name             : Dolby Digital
Codec ID                    : A_AC3
Duration                    : 2 h 31 min
Bit rate mode               : Constant
Bit rate                    : 192 kb/s
Channel(s)                  : 2 channels
Channel layout              : L R
Sampling rate               : 48.0 kHz
Frame rate                  : 31.250 FPS (1536 SPF)
Compression mode            : Lossy
Delay relative to video     : -5 ms
Stream size                 : 209 MiB (13%)
Language                    : Hindi
Service kind                : Complete Main
Default                     : Yes
Forced                      : No

Audio #2
ID                          : 3
Format                      : AC-3
Format/Info                 : Audio Coding 3
Commercial name             : Dolby Digital
Codec ID                    : A_AC3
Duration                    : 2 h 31 min
Bit rate mode               : Constant
Bit rate                    : 128 kb/s
Channel(s)                  : 2 channels
Channel layout              : L R
Sampling rate               : 48.0 kHz
Frame rate                  : 31.250 FPS (1536 SPF)
Compression mode            : Lossy
Delay relative to video     : -5 ms
Stream size                 : 139 MiB (8%)
Title                       : Stereo
Language                    : Telugu
Service kind                : Complete Main
Default                     : No
Forced                      : No

Text
ID                          : 4
Format                      : ASS
Codec ID                    : S_TEXT/ASS
Codec ID/Info               : Advanced Sub Station Alpha
Compression mode            : Lossless
Language                    : English
Default                     : No
Forced                      : No



SCREENSHOT



Keep Visit DesireMoVies.trade For More Exusive MoVies


Files:

Manmadhudu 2 (2019) UNCUT 720p WEB-HDRip x264 Esubs [Dual Audio] [Hindi DD 2.0 - Telugu 2.0]
  • SAMPLE.mkv (11.0 MB)
  • Manmdh 2 720p Hd Uncut Desiremovies.email-1 (1).mkv (1.6 GB)

Comments

Code:

  • udp://9.rarbg.to:2710/announce
  • udp://9.rarbg.me:2710/announce
  • udp://9.rarbg.com:2710/announce
  • udp://eddie4.nl:6969/announce
  • udp://tracker.leechers-paradise.org:6969/announce
  • udp://tracker.ilibr.org:80/announce
  • udp://tracker.zer0day.to:1337/announce
  • udp://tracker.coppersurfer.tk:80/announce
  • udp://tracker.ilibr.org:6969/announce
  • udp://tracker.coppersurfer.tk:6969/announce
  • udp://tracker.opentrackr.org:1337/announce
  • udp://p4p.arenabg.com:1337/announce
  • udp://p4p.arenabg.ch:1337/announce
  • udp://explodie.org:6969/announce
  • udp://tracker.aletorrenty.pl:2710/announce