Star Wars Episode V - The Empire Strikes Back (1980) (1080p DSNP ...

  • Category Movies
  • Type HEVC/x265
  • Language English
  • Total size 2.5 GB
  • Uploaded By UTRCorp
  • Downloads 221
  • Last checked 35 minutes ago
  • Date uploaded 2 days ago
  • Seeders 21
  • Leechers 9

Star Wars: Episode V - The Empire S...

ActionAdventureScience Fiction

The epic saga continues as Luke Skywalker, in hopes of defeating the evil Galactic Empire, learns the ways of the Jedi from aging master Yoda. But Darth Vader is more determined than ever to capture Luke. Meanwhile, rebel leader Princess Leia, cocky Han Solo, Chewbacca, and droids C-3PO and R2-D2 are thrown into various stages of capture, betrayal and despair.

Infohash : 28D78F329D51777AE2C4031BC9D4592AC18A8C98






Media Information


Code:

General
Format                                   : Matroska
Format version                           : Version 4 / Version 2
File size                                : 2.46 GiB
Duration                                 : 2 h 7 min
Overall bit rate                         : 2 764 kb/s
Encoded date                             : UTC 2019-12-29 07:16:45
Writing application                      : mkvmerge v40.0.0 ('Old Town Road + Pony') 64-bit
Writing library                          : libebml v1.3.9 + libmatroska v1.5.2
Cover                                    : Yes
Attachments                              : FRADMCN.ttf / cover.jpg
Writing frontend                         : StaxRip v2.0.2.0, Encoded by JoyBell

Video
ID                                       : 1
Format                                   : HEVC
Format/Info                              : High Efficiency Video Coding
Format profile                           : Main [email protected]@Main
Codec ID                                 : V_MPEGH/ISO/HEVC
Duration                                 : 2 h 7 min
Bit rate                                 : 2 174 kb/s
Width                                    : 1 920 pixels
Height                                   : 800 pixels
Display aspect ratio                     : 2.40:1
Frame rate mode                          : Constant
Frame rate                               : 23.976 (24000/1001) FPS
Color space                              : YUV
Chroma subsampling                       : 4:2:0
Bit depth                                : 10 bits
Bits/(Pixel*Frame)                       : 0.059
Stream size                              : 1.94 GiB (79%)
Writing library                          : x265 3.2+9-971180b100f8:[Windows][MSVC 1923][64 bit] 10bit
Encoding settings                        : cpuid=1111039 / frame-threads=4 / numa-pools=16 / wpp / no-pmode / no-pme / no-psnr / ssim / log-level=2 / input-csp=1 / input-res=1920x800 / interlace=0 / total-frames=183342 / level-idc=0 / high-tier=1 / uhd-bd=0 / ref=4 / no-allow-non-conformance / no-repeat-headers / annexb / no-aud / no-hrd / info / hash=0 / no-temporal-layers / open-gop / min-keyint=23 / keyint=250 / gop-lookahead=0 / bframes=8 / b-adapt=2 / b-pyramid / bframe-bias=20 / rc-lookahead=80 / lookahead-slices=4 / scenecut=40 / radl=0 / no-splice / no-intra-refresh / ctu=64 / min-cu-size=8 / rect / no-amp / max-tu-size=32 / tu-inter-depth=1 / tu-intra-depth=1 / limit-tu=0 / rdoq-level=2 / dynamic-rd=0.00 / ssim-rd / signhide / no-tskip / nr-intra=0 / nr-inter=0 / constrained-intra / strong-intra-smoothing / max-merge=5 / limit-refs=3 / limit-modes / me=3 / subme=5 / merange=57 / temporal-mvp / no-frame-dup / no-hme / weightp / no-weightb / no-analyze-src-pics / deblock=-2:-2 / sao / sao-non-deblock / rd=4 / selective-sao=4 / early-skip / rskip / no-fast-intra / no-tskip-fast / no-cu-lossless / no-b-intra / splitrd-skip / rdpenalty=0 / psy-rd=2.50 / psy-rdoq=1.50 / no-rd-refine / no-lossless / cbqpoffs=0 / crqpoffs=0 / rc=crf / crf=21.5 / qcomp=0.60 / qpstep=4 / stats-write=0 / stats-read=0 / ipratio=1.40 / pbratio=1.30 / aq-mode=3 / aq-strength=0.40 / cutree / zone-count=0 / no-strict-cbr / qg-size=32 / no-rc-grain / qpmax=69 / qpmin=0 / no-const-vbv / sar=0 / overscan=0 / videoformat=5 / range=0 / colorprim=2 / transfer=2 / colormatrix=1 / chromaloc=0 / display-window=0 / cll=0,0 / min-luma=0 / max-luma=1023 / log2-max-poc-lsb=8 / vui-timing-info / vui-hrd-info / slices=1 / no-opt-qp-pps / no-opt-ref-list-length-pps / no-multi-pass-opt-rps / scenecut-bias=0.05 / no-opt-cu-delta-qp / no-aq-motion / no-hdr / no-hdr-opt / no-dhdr10-opt / no-idr-recovery-sei / analysis-reuse-level=5 / scale-factor=0 / refine-intra=0 / refine-inter=0 / refine-mv=1 / refine-ctu-distortion=0 / no-limit-sao / ctu-info=0 / no-lowpass-dct / refine-analysis-type=0 / copy-pic=1 / max-ausize-factor=1.0 / no-dynamic-refine / no-single-sei / no-hevc-aq / no-svt / no-field / qp-adaptation-range=1.00
Default                                  : Yes
Forced                                   : No
Color range                              : Limited
Matrix coefficients                      : BT.709

Audio #1
ID                                       : 2
Format                                   : AAC
Format/Info                              : Advanced Audio Codec
Format profile                           : LC
Codec ID                                 : A_AAC
Duration                                 : 2 h 7 min
Bit rate                                 : 370 kb/s
Channel(s)                               : 8 channels
Channel positions                        : Front: L C R, Side: L R, Back: L R, LFE
Sampling rate                            : 48.0 kHz
Frame rate                               : 46.875 FPS (1024 spf)
Compression mode                         : Lossy
Delay relative to video                  : 9 ms
Stream size                              : 337 MiB (13%)
Language                                 : English
Default                                  : No
Forced                                   : No

Audio #2
ID                                       : 3
Format                                   : AAC
Format/Info                              : Advanced Audio Codec
Format profile                           : HE-AAC / LC
Codec ID                                 : A_AAC
Duration                                 : 2 h 7 min
Bit rate                                 : 48.0 kb/s
Channel(s)                               : 2 channels
Channel positions                        : Front: L R
Sampling rate                            : 48.0 kHz / 24.0 kHz
Frame rate                               : 23.438 FPS (1024 spf)
Compression mode                         : Lossy
Delay relative to video                  : 31 ms
Stream size                              : 42.8 MiB (2%)
Title                                    : Commentary
Language                                 : English
Default                                  : No
Forced                                   : No

Audio #3
ID                                       : 4
Format                                   : AAC
Format/Info                              : Advanced Audio Codec
Format profile                           : HE-AAC / LC
Codec ID                                 : A_AAC
Duration                                 : 2 h 7 min
Bit rate                                 : 48.0 kb/s
Channel(s)                               : 2 channels
Channel positions                        : Front: L R
Sampling rate                            : 48.0 kHz / 24.0 kHz
Frame rate                               : 23.438 FPS (1024 spf)
Compression mode                         : Lossy
Delay relative to video                  : 31 ms
Stream size                              : 43.0 MiB (2%)
Title                                    : Commentary
Language                                 : English
Default                                  : No
Forced                                   : No

Subtitle #1
ID                                       : 5
Format                                   : VobSub
Muxing mode                              : zlib
Codec ID                                 : S_VOBSUB
Codec ID/Info                            : Picture based subtitle format used on DVDs
Duration                                 : 2 h 3 min
Bit rate                                 : 7 731 b/s
Count of elements                        : 1134
Stream size                              : 6.84 MiB (0%)
Language                                 : English
Default                                  : No
Forced                                   : No

Subtitle #2
ID                                       : 6
Format                                   : VobSub
Muxing mode                              : zlib
Codec ID                                 : S_VOBSUB
Codec ID/Info                            : Picture based subtitle format used on DVDs
Duration                                 : 2 h 3 min
Bit rate                                 : 8 312 b/s
Count of elements                        : 1552
Stream size                              : 7.36 MiB (0%)
Language                                 : English
Default                                  : No
Forced                                   : No

Subtitle #3
ID                                       : 7
Format                                   : VobSub
Muxing mode                              : zlib
Codec ID                                 : S_VOBSUB
Codec ID/Info                            : Picture based subtitle format used on DVDs
Duration                                 : 2 h 6 min
Bit rate                                 : 4 537 b/s
Count of elements                        : 1146
Stream size                              : 4.12 MiB (0%)
Language                                 : Arabic
Default                                  : No
Forced                                   : No

Subtitle #4
ID                                       : 8
Format                                   : VobSub
Muxing mode                              : zlib
Codec ID                                 : S_VOBSUB
Codec ID/Info                            : Picture based subtitle format used on DVDs
Duration                                 : 2 h 6 min
Bit rate                                 : 6 644 b/s
Count of elements                        : 951
Stream size                              : 6.03 MiB (0%)
Language                                 : Bulgarian
Default                                  : No
Forced                                   : No

Subtitle #5
ID                                       : 9
Format                                   : VobSub
Muxing mode                              : zlib
Codec ID                                 : S_VOBSUB
Codec ID/Info                            : Picture based subtitle format used on DVDs
Duration                                 : 2 h 6 min
Bit rate                                 : 7 394 b/s
Count of elements                        : 1243
Stream size                              : 6.72 MiB (0%)
Language                                 : Chinese
Default                                  : No
Forced                                   : No

Subtitle #6
ID                                       : 10
Format                                   : VobSub
Muxing mode                              : zlib
Codec ID                                 : S_VOBSUB
Codec ID/Info                            : Picture based subtitle format used on DVDs
Duration                                 : 2 h 6 min
Bit rate                                 : 6 119 b/s
Count of elements                        : 1091
Stream size                              : 5.56 MiB (0%)
Language                                 : Croatian
Default                                  : No
Forced                                   : No

Subtitle #7
ID                                       : 11
Format                                   : VobSub
Muxing mode                              : zlib
Codec ID                                 : S_VOBSUB
Codec ID/Info                            : Picture based subtitle format used on DVDs
Duration                                 : 2 h 6 min
Bit rate                                 : 6 131 b/s
Count of elements                        : 1095
Stream size                              : 5.57 MiB (0%)
Language                                 : Czech
Default                                  : No
Forced                                   : No

Subtitle #8
ID                                       : 12
Format                                   : VobSub
Muxing mode                              : zlib
Codec ID                                 : S_VOBSUB
Codec ID/Info                            : Picture based subtitle format used on DVDs
Duration                                 : 2 h 3 min
Bit rate                                 : 5 775 b/s
Count of elements                        : 838
Stream size                              : 5.11 MiB (0%)
Language                                 : Danish
Default                                  : No
Forced                                   : No

Subtitle #9
ID                                       : 13
Format                                   : VobSub
Muxing mode                              : zlib
Codec ID                                 : S_VOBSUB
Codec ID/Info                            : Picture based subtitle format used on DVDs
Duration                                 : 2 h 6 min
Bit rate                                 : 5 245 b/s
Count of elements                        : 1048
Stream size                              : 4.76 MiB (0%)
Language                                 : Dutch
Default                                  : No
Forced                                   : No

Subtitle #10
ID                                       : 14
Format                                   : VobSub
Muxing mode                              : zlib
Codec ID                                 : S_VOBSUB
Codec ID/Info                            : Picture based subtitle format used on DVDs
Duration                                 : 2 h 3 min
Bit rate                                 : 5 419 b/s
Count of elements                        : 820
Stream size                              : 4.80 MiB (0%)
Language                                 : Finnish
Default                                  : No
Forced                                   : No

Subtitle #11
ID                                       : 15
Format                                   : VobSub
Muxing mode                              : zlib
Codec ID                                 : S_VOBSUB
Codec ID/Info                            : Picture based subtitle format used on DVDs
Duration                                 : 2 h 3 min
Bit rate                                 : 6 735 b/s
Count of elements                        : 1177
Stream size                              : 5.96 MiB (0%)
Language                                 : French
Default                                  : No
Forced                                   : No

Subtitle #12
ID                                       : 16
Format                                   : VobSub
Muxing mode                              : zlib
Codec ID                                 : S_VOBSUB
Codec ID/Info                            : Picture based subtitle format used on DVDs
Duration                                 : 2 h 3 min
Bit rate                                 : 9 228 b/s
Count of elements                        : 1134
Stream size                              : 8.17 MiB (0%)
Language                                 : German
Default                                  : No
Forced                                   : No

Subtitle #13
ID                                       : 17
Format                                   : VobSub
Muxing mode                              : zlib
Codec ID                                 : S_VOBSUB
Codec ID/Info                            : Picture based subtitle format used on DVDs
Duration                                 : 2 h 6 min
Bit rate                                 : 8 016 b/s
Count of elements                        : 1050
Stream size                              : 7.28 MiB (0%)
Language                                 : Greek
Default                                  : No
Forced                                   : No

Subtitle #14
ID                                       : 18
Format                                   : VobSub
Muxing mode                              : zlib
Codec ID                                 : S_VOBSUB
Codec ID/Info                            : Picture based subtitle format used on DVDs
Duration                                 : 2 h 6 min
Bit rate                                 : 6 210 b/s
Count of elements                        : 1158
Stream size                              : 5.64 MiB (0%)
Language                                 : Hebrew
Default                                  : No
Forced                                   : No

Subtitle #15
ID                                       : 19
Format                                   : VobSub
Muxing mode                              : zlib
Codec ID                                 : S_VOBSUB
Codec ID/Info                            : Picture based subtitle format used on DVDs
Duration                                 : 2 h 6 min
Bit rate                                 : 6 453 b/s
Count of elements                        : 1078
Stream size                              : 5.86 MiB (0%)
Language                                 : Hungarian
Default                                  : No
Forced                                   : No

Subtitle #16
ID                                       : 20
Format                                   : VobSub
Muxing mode                              : zlib
Codec ID                                 : S_VOBSUB
Codec ID/Info                            : Picture based subtitle format used on DVDs
Duration                                 : 2 h 6 min
Bit rate                                 : 7 565 b/s
Count of elements                        : 1100
Stream size                              : 6.87 MiB (0%)
Language                                 : Icelandic
Default                                  : No
Forced                                   : No

Subtitle #17
ID                                       : 21
Format                                   : VobSub
Muxing mode                              : zlib
Codec ID                                 : S_VOBSUB
Codec ID/Info                            : Picture based subtitle format used on DVDs
Duration                                 : 2 h 3 min
Bit rate                                 : 7 426 b/s
Count of elements                        : 1134
Stream size                              : 6.58 MiB (0%)
Language                                 : Italian
Default                                  : No
Forced                                   : No

Subtitle #18
ID                                       : 22
Format                                   : VobSub
Muxing mode                              : zlib
Codec ID                                 : S_VOBSUB
Codec ID/Info                            : Picture based subtitle format used on DVDs
Duration                                 : 2 h 3 min
Bit rate                                 : 5 014 b/s
Count of elements                        : 838
Stream size                              : 4.44 MiB (0%)
Language                                 : Norwegian Bokmal
Default                                  : No
Forced                                   : No

Subtitle #19
ID                                       : 23
Format                                   : VobSub
Muxing mode                              : zlib
Codec ID                                 : S_VOBSUB
Codec ID/Info                            : Picture based subtitle format used on DVDs
Duration                                 : 2 h 6 min
Bit rate                                 : 6 580 b/s
Count of elements                        : 1088
Stream size                              : 5.98 MiB (0%)
Language                                 : Polish
Default                                  : No
Forced                                   : No

Subtitle #20
ID                                       : 24
Format                                   : VobSub
Muxing mode                              : zlib
Codec ID                                 : S_VOBSUB
Codec ID/Info                            : Picture based subtitle format used on DVDs
Duration                                 : 2 h 3 min
Bit rate                                 : 7 024 b/s
Count of elements                        : 1210
Stream size                              : 6.22 MiB (0%)
Language                                 : Portuguese
Default                                  : No
Forced                                   : No

Subtitle #21
ID                                       : 25
Format                                   : VobSub
Muxing mode                              : zlib
Codec ID                                 : S_VOBSUB
Codec ID/Info                            : Picture based subtitle format used on DVDs
Duration                                 : 2 h 6 min
Bit rate                                 : 7 296 b/s
Count of elements                        : 1194
Stream size                              : 6.63 MiB (0%)
Language                                 : Portuguese
Default                                  : No
Forced                                   : No

Subtitle #22
ID                                       : 26
Format                                   : VobSub
Muxing mode                              : zlib
Codec ID                                 : S_VOBSUB
Codec ID/Info                            : Picture based subtitle format used on DVDs
Duration                                 : 2 h 6 min
Bit rate                                 : 8 267 b/s
Count of elements                        : 1148
Stream size                              : 7.51 MiB (0%)
Language                                 : Romanian
Default                                  : No
Forced                                   : No

Subtitle #23
ID                                       : 27
Format                                   : VobSub
Muxing mode                              : zlib
Codec ID                                 : S_VOBSUB
Codec ID/Info                            : Picture based subtitle format used on DVDs
Duration                                 : 2 h 6 min
Bit rate                                 : 8 949 b/s
Count of elements                        : 1168
Stream size                              : 8.13 MiB (0%)
Language                                 : Russian
Default                                  : No
Forced                                   : No

Subtitle #24
ID                                       : 28
Format                                   : VobSub
Muxing mode                              : zlib
Codec ID                                 : S_VOBSUB
Codec ID/Info                            : Picture based subtitle format used on DVDs
Duration                                 : 2 h 6 min
Bit rate                                 : 7 441 b/s
Count of elements                        : 1147
Stream size                              : 6.76 MiB (0%)
Language                                 : Slovenian
Default                                  : No
Forced                                   : No

Subtitle #25
ID                                       : 29
Format                                   : VobSub
Muxing mode                              : zlib
Codec ID                                 : S_VOBSUB
Codec ID/Info                            : Picture based subtitle format used on DVDs
Duration                                 : 2 h 3 min
Bit rate                                 : 6 782 b/s
Count of elements                        : 1102
Stream size                              : 6.00 MiB (0%)
Language                                 : Spanish
Default                                  : No
Forced                                   : No

Subtitle #26
ID                                       : 30
Format                                   : VobSub
Muxing mode                              : zlib
Codec ID                                 : S_VOBSUB
Codec ID/Info                            : Picture based subtitle format used on DVDs
Duration                                 : 2 h 3 min
Bit rate                                 : 7 530 b/s
Count of elements                        : 1092
Stream size                              : 6.67 MiB (0%)
Language                                 : Spanish
Default                                  : No
Forced                                   : No

Subtitle #27
ID                                       : 31
Format                                   : VobSub
Muxing mode                              : zlib
Codec ID                                 : S_VOBSUB
Codec ID/Info                            : Picture based subtitle format used on DVDs
Duration                                 : 2 h 3 min
Bit rate                                 : 5 823 b/s
Count of elements                        : 877
Stream size                              : 5.16 MiB (0%)
Language                                 : Swedish
Default                                  : No
Forced                                   : No

Subtitle #28
ID                                       : 32
Format                                   : VobSub
Muxing mode                              : zlib
Codec ID                                 : S_VOBSUB
Codec ID/Info                            : Picture based subtitle format used on DVDs
Duration                                 : 2 h 6 min
Bit rate                                 : 7 869 b/s
Count of elements                        : 1148
Stream size                              : 7.15 MiB (0%)
Language                                 : Turkish
Default                                  : No
Forced                                   : No

Subtitle #29
ID                                       : 33
Format                                   : UTF-8
Codec ID                                 : S_TEXT/UTF8
Codec ID/Info                            : UTF-8 Plain Text
Duration                                 : 2 h 0 min
Bit rate                                 : 52 b/s
Count of elements                        : 856
Stream size                              : 46.0 KiB (0%)
Language                                 : Arabic
Default                                  : No
Forced                                   : No

Subtitle #30
ID                                       : 34
Format                                   : UTF-8
Codec ID                                 : S_TEXT/UTF8
Codec ID/Info                            : UTF-8 Plain Text
Duration                                 : 1 h 58 min
Bit rate                                 : 72 b/s
Count of elements                        : 1486
Stream size                              : 62.8 KiB (0%)
Language                                 : Persian
Default                                  : No
Forced                                   : No

Subtitle #31
ID                                       : 35
Format                                   : UTF-8
Codec ID                                 : S_TEXT/UTF8
Codec ID/Info                            : UTF-8 Plain Text
Duration                                 : 2 h 6 min
Bit rate                                 : 65 b/s
Count of elements                        : 1047
Stream size                              : 61.0 KiB (0%)
Language                                 : Greek
Default                                  : No
Forced                                   : No

Subtitle #32
ID                                       : 36
Format                                   : UTF-8
Codec ID                                 : S_TEXT/UTF8
Codec ID/Info                            : UTF-8 Plain Text
Duration                                 : 2 h 2 min
Bit rate                                 : 60 b/s
Count of elements                        : 1134
Stream size                              : 54.2 KiB (0%)
Language                                 : Hebrew
Default                                  : No
Forced                                   : No

Subtitle #33
ID                                       : 37
Format                                   : UTF-8
Codec ID                                 : S_TEXT/UTF8
Codec ID/Info                            : UTF-8 Plain Text
Duration                                 : 2 h 0 min
Bit rate                                 : 91 b/s
Count of elements                        : 1330
Stream size                              : 80.6 KiB (0%)
Language                                 : Thai
Default                                  : No
Forced                                   : No

Subtitle #34
ID                                       : 38
Format                                   : UTF-8
Codec ID                                 : S_TEXT/UTF8
Codec ID/Info                            : UTF-8 Plain Text
Duration                                 : 2 h 0 min
Bit rate                                 : 64 b/s
Count of elements                        : 1147
Stream size                              : 56.5 KiB (0%)
Language                                 : Vietnamese
Default                                  : No
Forced                                   : No

Menu
00:00:00.000                             : en:Opening Logos
00:00:21.104                             : en:The Empire Strikes Back
00:01:54.865                             : en:Ice Planet Hoth
00:04:15.839                             : en:The Rebel Base
00:08:19.249                             : en:Escape From the Wampa
00:10:15.949                             : en:Closing the Doors
00:12:57.735                             : en:Obi-Wan's Instructions
00:15:13.538                             : en:Search Party
00:16:29.697                             : en:Luke's Recovery
00:18:19.974                             : en:Imperial Probe Droid
00:19:45.393                             : en:The Imperial Fleet
00:21:22.698                             : en:Preparing for Battle
00:23:57.728                             : en:First Transport Away
00:25:49.423                             : en:Battle in the Snow
00:29:29.351                             : en:The Tide Turns
00:31:29.221                             : en:Rebels in Retreat
00:33:37.682                             : en:Escape Aboard the Falcon
00:35:55.153                             : en:Leaving for Dagobah
00:36:51.251                             : en:The Empire in Pursuit
00:38:33.561                             : en:Asteroid Field
00:40:36.726                             : en:Crash Landing on Dagobah
00:44:20.074                             : en:Hunting the Falcon
00:46:08.391                             : en:"Found Someone, You Have"
00:50:13.385                             : en:Interrupted Kiss
00:52:16.633                             : en:The Emperor's Message
00:54:20.257                             : en:Yoda's Hut
00:57:40.290                             : en:"This is No Cave"
01:00:57.946                             : en:Jedi Training
01:03:42.777                             : en:Failure at the Cave
01:05:46.109                             : en:Bounty Hunters
01:08:12.171                             : en:There is No Try
01:13:24.233                             : en:Out With the Garbage
01:16:39.887                             : en:Seeing the Future
01:18:24.116                             : en:City in the Clouds
01:19:45.864                             : en:Meeting Lando
01:22:55.929                             : en:Leaving Dagobah
01:25:38.550                             : en:Leia's Concerns
01:27:51.266                             : en:Imperial Surprise
01:30:28.673                             : en:The Deal Gets Worse
01:34:39.799                             : en:Carbon Freeze
01:38:28.903                             : en:Luke Enters the Trap
01:40:26.145                             : en:Confronting the Dark Lord
01:41:46.100                             : en:Lando's Second Surprise
01:43:51.434                             : en:Lightsaber Duel
01:47:02.541                             : en:Escape From Cloud City
01:49:21.472                             : en:Vader's Revelation
01:53:41.690                             : en:Falcon to the Rescue
01:56:14.843                             : en:The Empire Closes In
01:59:46.596                             : en:The Rebel Fleet
02:01:58.228                             : en:End Credits



Source Information


Code:

Release:
Star.Wars.Episode.V.The.Empire.Strikes.Back.1980.2160p.DSNP.WEBRip.x265.10bit.HDR.DTS-HD.MA.6.1-TrollUHD (21.49 GBs)



Code:


Note From UTR
Whilst we are happy for our releases to be re-posted on a platform we aren't on, please do so in an 'as-is' format. We ask that you do not create a new torrent, include all descriptions you see above including the UTR logo, tags, notes and screenshots. If you'd like to become a permanent poster on a website we don't post to, feel free to get in contact with a UTR member.
If possible please donate for seedboxes.
BTC - 1QA5fum5AyXvWzdVCkQzUNvw3Ef15fHRaR
Monero - 8AuksPSzY7fen3HHT1a2342PgVy4J93MKfXG3AAcayV76miTyJ3sNfn38srwrpLirGfeR5DwhTL8GW8pdQgT7bZcJ25ynMx
Dash - Xh4mNs6uwZdpCEX2HSEVwGvPD7yKxZ1Ccd
Ethereum - 0x51c06c94e74c16735a7a6e841ad29fc90a84eb1f




Files:

  • Star Wars Episode V - The Empire Strikes Back (1980) [1080p x265 q22 FS89 Joy].mkv (2.5 GB)

Comments

Code:

  • udp://tracker.opentrackr.org:1337/announce
  • udp://tracker.coppersurfer.tk:6969/announce
  • udp://9.rarbg.com:2710/announce
  • udp://9.rarbg.to:2710/announce
  • udp://tracker.torrent.eu.org:451/announce
  • udp://exodus.desync.com:6969/announce
  • udp://tracker.tiny-vps.com:6969/announce
  • udp://open.demonii.si:1337/announce
  • udp://tracker.internetwarriors.net:1337/announce
/08/e7/ff/08e7ffd6a1ad8052c7c702273b643766.js'>