Kaali Ka Karishma (Kanchna 3) 2019 Hindi 1080p WEB-DL x264 AAC - ...

  • Category Movies
  • Type Dubs/Dual Audio
  • Language Spanish
  • Total size 2.4 GB
  • Uploaded By uploader6969
  • Downloads 499
  • Last checked 1 month ago
  • Date uploaded 1 month ago
  • Seeders 11
  • Leechers 10

Infohash : 115A47F340D24C8FC706CBEFCBDBDDA6D9FCAE68

www.MoviePirate.Site


Telegram Link



****************************
_____ _ _ 
|_ _|___ | || | _ _ 
| | / _ \| || || | | |
| || __/| || || |_| |
|_| \___||_||_| \__, |
|___/ 
****************************
Team Telly Proudly Presents
****************************
------------------
|Media Info|
------------------
General
Unique ID                                : 1581994025050253740052740873093611977 (0x130AE53D1884C77647FCC12E91381C9)
Complete name                            : D:\Encoded\Done\Kaali Ka Karishma (Kanchna 3) 2019 Hindi 1080p WEB-DL x264 AAC - MoviePirate - Telly\Kaali Ka Karishma (Kanchna 3) 2019 Hindi 1080p WEB-DL x264 AAC - MoviePirate - Telly.mkv
Format                                   : Matroska
Format version                           : Version 4
File size                                : 2.38 GiB
Duration                                 : 2 h 30 min
Overall bit rate                         : 2 261 kb/s
Movie name                               : MoviePirate.Site | Kaali Ka Karishma (Kanchna 3) 2019 Hindi 1080p WEB-DL x264 AAC - MoviePirate - Telly
Encoded date                             : UTC 2019-12-31 10:49:54
Writing application                      : mkvmerge v40.0.0 ('Old Town Road + Pony') 64-bit
Writing library                          : libebml v1.3.9 + libmatroska v1.5.2
Video
ID                                       : 1
Format                                   : AVC
Format/Info                              : Advanced Video Codec
Format profile                           : [email protected]
Format settings                          : CABAC / 4 Ref Frames
Format settings, CABAC                   : Yes
Format settings, Reference frames        : 4 frames
Codec ID                                 : V_MPEG4/ISO/AVC
Duration                                 : 2 h 30 min
Bit rate                                 : 2 200 kb/s
Width                                    : 1 920 pixels
Height                                   : 1 080 pixels
Display aspect ratio                     : 16:9
Frame rate mode                          : Constant
Frame rate                               : 25.000 FPS
Color space                              : YUV
Chroma subsampling                       : 4:2:0
Bit depth                                : 8 bits
Scan type                                : Progressive
Bits/(Pixel*Frame)                       : 0.042
Stream size                              : 2.27 GiB (96%)
Title                                    : MoviePirate.Site
Writing library                          : x264 core 152 r2854 e9a5903
Encoding settings                        : cabac=1 / ref=3 / deblock=1:0:0 / analyse=0x3:0x113 / me=hex / subme=7 / psy=1 / psy_rd=1.00:0.00 / mixed_ref=1 / me_range=16 / chroma_me=1 / trellis=1 / 8x8dct=1 / cqm=0 / deadzone=21,11 / fast_pskip=1 / chroma_qp_offset=-2 / threads=34 / lookahead_threads=5 / sliced_threads=0 / nr=0 / decimate=1 / interlaced=0 / bluray_compat=0 / constrained_intra=0 / bframes=3 / b_pyramid=2 / b_adapt=1 / b_bias=0 / direct=1 / weightb=1 / open_gop=0 / weightp=2 / keyint=50 / keyint_min=26 / scenecut=0 / intra_refresh=0 / rc_lookahead=40 / rc=abr / mbtree=1 / bitrate=2200 / ratetol=1.0 / qcomp=0.60 / qpmin=0 / qpmax=69 / qpstep=4 / vbv_maxrate=2860 / vbv_bufsize=3300 / nal_hrd=none / filler=0 / ip_ratio=1.40 / aq=1:1.00
Default                                  : Yes
Forced                                   : No
Audio
ID                                       : 2
Format                                   : AAC LC
Format/Info                              : Advanced Audio Codec Low Complexity
Codec ID                                 : A_AAC-2
Duration                                 : 2 h 30 min
Bit rate                                 : 96.0 kb/s
Channel(s)                               : 2 channels
Channel layout                           : L R
Sampling rate                            : 48.0 kHz
Frame rate                               : 46.875 FPS (1024 SPF)
Compression mode                         : Lossy
Stream size                              : 105 MiB (4%)
Title                                    : MoviePirate.Site
Language                                 : Hindi
Default                                  : Yes
Forced                                   : No
****************************
Telly.cc
Team Telly Official Site
****************************
www.MoviePirate.Site
Enjoy Exclusives Content only on Telly.cc


Files:

Kaali Ka Karishma (Kanchna 3) 2019 Hindi 1080p WEB-DL x264 AAC - MoviePirate - Telly
  • Kaali Ka Karishma (Kanchna 3) 2019 Hindi 1080p WEB-DL x264 AAC - MoviePirate - Telly.mkv (2.4 GB)
  • MoviePirate.Site.txt (0.1 KB)

There are currently no comments. Feel free to leave one :)

Code:

  • udp://tracker.coppersurfer.tk:6969/announce
  • udp://tracker.leechers-paradise.org:6969/announce
  • udp://open.stealth.si:80/announce
  • udp://tracker.internetwarriors.net:1337/announce
  • udp://tracker.openbittorrent.com:80/announce
  • udp://explodie.org:6969/announce
  • udp://tracker.opentrackr.org:1337/announce
  • udp://tracker.tiny-vps.com:6969/announce
  • udp://open.demonii.si:1337/announce
  • udp://tracker.torrent.eu.org:451/announce
  • udp://tracker.pirateparty.gr:6969/announce
  • udp://ipv4.tracker.harry.lu:80/announce
  • udp://tracker.cyberia.is:6969/announce
  • udp://9.rarbg.to:2710/announce
  • udp://denis.stalker.upeer.me:6969/announce