Ghost Stories (2020) Hindi 720p WEB Rip x264 AAC . Eng Sub

  • Category Movies
  • Type Bollywood
  • Language Hindi
  • Total size 873.6 MB
  • Uploaded By krishh1337
  • Downloads 466
  • Last checked 1 hour ago
  • Date uploaded 12 hours ago
  • Seeders 86
  • Leechers 69

Infohash : 501E16763EC8F201DFA122A2728E6AE85425AA93



Ghost Stories (2020)

2h 24min | Horror | 31 December 2019 (USA)

The winning team of LUST STORIES unite to tell some spine – chilling tales.
Ghost Stories is an upcoming 2020 Indian anthology horror film, consisting of four short film segments
directed by Karan Johar, Dibakar Banerjee, Zoya Akhtar and Anurag Kashyap.
It serves a sequel to the 2013 and 2018 films – Bombay Talkies and Lust Stories respectively.

Directors: Zoya Akhtar, Dibakar Banerjee
Writers: Isha Luthra, Ensia Mirza (Writer)

Stars: Sobhita Dhulipala, Mrunal Thakur, Janhvi Kapoor.

Format : Matroska
Format version : Version 4
File size : 874 MiB
Duration : 2 h 24 min
Overall bit rate mode : Variable
Overall bit rate : 845 kb/s

Video
ID : 1
Format : AVC
Format/Info : Advanced Video Codec
Format profile : [email protected]
Format settings : CABAC / 4 Ref Frames
Format settings, CABAC : Yes
Format settings, ReFrames : 4 frames
Codec ID : V_MPEG4/ISO/AVC
Duration : 2 h 24 min
Bit rate mode : Variable
Bit rate : 687 kb/s
Maximum bit rate : 14.0 Mb/s
Width : 1 280 pixels
Height : 720 pixels
Display aspect ratio : 16:9
Frame rate mode : Constant
Frame rate : 24.000 FPS
Color space : YUV
Chroma subsampling : 4:2:0
Bit depth : 8 bits
Scan type : Progressive
Bits/(Pixel*Frame) : 0.031
Stream size : 711 MiB (81%)
Writing library : x264 core

Audio
ID : 2
Format : AAC LC
Format/Info : Advanced Audio Codec Low Complexity
Codec ID : A_AAC-2
Duration : 2 h 24 min
Bit rate : 155 kb/s
Channel(s) : 6 channels
Channel layout : C L R Ls Rs LFE
Sampling rate : 44.1 kHz
Frame rate : 43.066 FPS (1024 SPF)
Compression mode : Lossy
Stream size : 161 MiB (18%)
Title : HINDI
Language : Hindi
Default : Yes
Forced : No

Text
ID : 3
Format : UTF-8
Codec ID : S_TEXT/UTF8
Codec ID/Info : UTF-8 Plain Text
Duration : 2 h 12 min
Bit rate : 21 b/s
Count of elements : 749
Stream size : 20.6 KiB (0%)
Language : English
Default : No
Forced : No

Files:

  • Ghost Stories (2020) Hindi 720p WEB Rip x264 AAC . Eng Sub.mkv (873.6 MB)

There are currently no comments. Feel free to leave one :)

Code:

  • http://t.nyaatracker.com:80/announce
  • http://tracker.city9x.com:2710/announce
  • udp://tracker.leechers-paradise.org:6969/announce
  • udp://9.rarbg.to:2800/announce
  • http://tracker3.itzmx.com:6961/announce
  • http://tracker1.itzmx.com:8080/announce
  • http://tracker.electro-torrent.pl:80/announce
  • udp://tracker.coppersurfer.tk:6969/announce
  • udp://tracker.open-internet.nl:6969/announce
  • http://tracker3.itzmx.com:8080/announce
  • udp://tracker.openbittorrent.com:80/announce
  • udp://tracker.tiny-vps.com:6969/announce
  • udp://tracker.opentrackr.org:1337/announce
  • udp://open.stealth.si:80/announce
  • udp://tracker.pirateparty.gr:6969/announce
  • udp://open.demonii.si:1337/announce
  • https://opentracker.xyz:443/announce
  • https://tracker.fastdownload.xyz:443/announce
  • udp://exodus.desync.com:6969/announce
  • udp://tracker.supertracker.net:1337/announce
  • udp://explodie.org:6969/announce
  • UDP://TRACKER.COPPERSURFER.TK:6969/ANNOUNCE
  • udp://eddie4.nl:6969/announce
  • udp://thetracker.org:80/announce
  • udp://bt.xxx-tracker.com:2710/announce
  • http://retracker.gorcomnet.ru/announce
  • udp://tracker.port443.xyz:6969/announce
  • udp://185.225.17.100:1337/announce
/08/e7/ff/08e7ffd6a1ad8052c7c702273b643766.js'>