Ghost Stories 2020 x264 720p HD Hindi GOPISAHI

  • Category Movies
  • Type Bollywood
  • Language Hindi
  • Total size 812.3 MB
  • Uploaded By PENDUDESI
  • Downloads 2325
  • Last checked 6 months ago
  • Date uploaded 7 months ago
  • Seeders 59
  • Leechers 8

Ghost Stories

Horror

An anthology of four short horror tales.

Infohash : B8FE1A60807DCA7EDCEAE456A9FFB8AD0F90969D

https://www.gopisahi.in/




Ghost Stories 2020 x264 720p HD Hindi GOPISAHI

Format : Matroska
Format version : Version 4
File size : 812 MiB
Duration : 2 h 24 min
Overall bit rate mode : Variable
Overall bit rate : 785 kb/s
Movie name : Ghost Stories 2020 GOPISAHI

Video
Format : AVC
Format/Info : Advanced Video Codec
Format profile : [email protected]
Format settings : CABAC / 4 Ref Frames
Format settings, CABAC : Yes
Format settings, Reference fra : 4 frames
Codec ID : V_MPEG4/ISO/AVC
Duration : 2 h 24 min
Bit rate mode : Variable
Bit rate : 687 kb/s
Maximum bit rate : 14.0 Mb/s
Width : 1 280 pixels
Height : 720 pixels
Display aspect ratio : 16:9
Frame rate mode : Constant
Frame rate : 24.000 FPS
Color space : YUV
Chroma subsampling : 4:2:0
Bit depth : 8 bits
Scan type : Progressive
Bits/(Pixel*Frame) : 0.031
Stream size : 711 MiB (88%)
Title : GOPISAHI
Writing library : x264 core 148 r2715 7e75228

Audio
Format : AAC LC
Duration : 2 h 24 min
Bit rate : 96.0 kb/s
Channel(s) : 2 channels
Channel layout : L R
Sampling rate : 48.0 kHz
Frame rate : 46.875 FPS (1024 SPF)
Compression mode : Lossy
Stream size : 99.2 MiB (12%)
Title : GOPISAHI
Language : Hindi






Files:

  • Ghost Stories 2020 x264 720p HD Hindi GOPISAHI.mkv (812.3 MB)

There are currently no comments. Feel free to leave one :)

Code:

  • udp://tracker.leechers-paradise.org:6969/announce
  • udp://tracker.coppersurfer.tk:6969/announce
  • udp://denis.stalker.upeer.me:6969/announce
  • udp://tracker.internetwarriors.net:1337/announce
  • udp://explodie.org:6969/announce
  • udp://tracker.pirateparty.gr:6969/announce
  • udp://tracker.uw0.xyz:6969/announce
  • udp://denis.stalker.upeer.me:6969/announce
  • udp://torrentclub.tech:6969/announce
  • udp://retracker.lanta-net.ru:2710/announce
  • udp://tracker.supertracker.net:1337/announce
  • http://tracker.yoshi210.com:6969/announce
  • udp://amigacity.xyz:6969/announce
  • udp://newtoncity.org:6969/announce
  • udp://torrentclub.tech:6969/announce