Oxygen (2017) UNCUT 720p WEB-HD x264 [Dual Audio] [ Hindi(Clean) ...

  • Category Movies
  • Type Dubs/Dual Audio
  • Language Hindi
  • Total size 1.6 GB
  • Uploaded By 300movieshub
  • Downloads 17369
  • Last checked 8 months ago
  • Date uploaded 8 months ago
  • Seeders 121
  • Leechers 59

Oxygen

RomanceActionThriller

Sanjeev is an NRI who comes to India to marry Sruthi, daughter of Raghupathi, a revered man in their village. But someone seems to be targeting the family and is out to kill them. Who is after the family and why is what 'Oxygen' is all about.

Infohash : 4BA524D383400CFFFA562B0DBAFAB43FD5EF4BB9

Oxygen (2017) UNCUT 720p WEB-HD x264 [Dual Audio] [ Hindi(Clean) - Telugu]



This Movie is Encoded by HDHub4u.Surf



https://t.me/joinchat/AAAAAFXz27QZxZs_U9QKug






POSTER





INFO



General
Unique ID                                : 168693094416421098396343385783085169045 (0x7EE91BB2A768EFD1AD75AD8B52A5F995)
Complete name                            : J:\Oxygen (2020) UNCUT 720p WEBRip Dual Audio [Hindi (Clean)+Telugu] x264 ESubs -HDHub4u.Surf.mkv
Format                                   : Matroska
Format version                           : Version 4
File size                                : 1.62 GiB
Duration                                 : 2 h 32 min
Overall bit rate                         : 1 519 kb/s
Movie name                               : HDHub4u.Surf | Oxygen (2020) UNCUT 720p WEBRip Dual Audio [Hindi (Clean)+Telugu] ESubs
Encoded date                             : UTC 2020-01-12 09:30:02
Writing application                      : mkvmerge v42.0.0 ('Overtime') 64-bit
Writing library                          : libebml v1.3.10 + libmatroska v1.5.2

Video
ID                                       : 1
Format                                   : AVC
Format/Info                              : Advanced Video Codec
Format profile                           : [email protected]
Format settings                          : CABAC / 5 Ref Frames
Format settings, CABAC                   : Yes
Format settings, RefFrames               : 5 frames
Codec ID                                 : V_MPEG4/ISO/AVC
Duration                                 : 2 h 32 min
Bit rate                                 : 1 100 kb/s
Width                                    : 1 280 pixels
Height                                   : 544 pixels
Display aspect ratio                     : 2.35:1
Frame rate mode                          : Constant
Frame rate                               : 25.000 FPS
Color space                              : YUV
Chroma subsampling                       : 4:2:0
Bit depth                                : 8 bits
Scan type                                : Progressive
Bits/(Pixel*Frame)                       : 0.063
Stream size                              : 1.17 GiB (72%)
Title                                    : DownLoaded From HDHub4u.Surf
Writing library                          : x264 core 157 r2935 545de2f
Encoding settings                        : cabac=1 / ref=5 / deblock=1:0:0 / analyse=0x1:0x111 / me=hex / subme=8 / psy=1 / psy_rd=1.00:0.00 / mixed_ref=1 / me_range=16 / chroma_me=1 / trellis=2 / 8x8dct=0 / cqm=0 / deadzone=21,11 / fast_pskip=1 / chroma_qp_offset=-2 / threads=17 / lookahead_threads=2 / sliced_threads=0 / nr=0 / decimate=1 / interlaced=0 / bluray_compat=0 / constrained_intra=0 / bframes=3 / b_pyramid=2 / b_adapt=1 / b_bias=0 / direct=3 / weightb=1 / open_gop=0 / weightp=2 / keyint=250 / keyint_min=25 / scenecut=40 / intra_refresh=0 / rc_lookahead=50 / rc=2pass / mbtree=1 / bitrate=1100 / ratetol=1.0 / qcomp=0.60 / qpmin=0 / qpmax=69 / qpstep=4 / cplxblur=20.0 / qblur=0.5 / vbv_maxrate=50000 / vbv_bufsize=62500 / nal_hrd=none / filler=0 / ip_ratio=1.40 / aq=1:1.00
Default                                  : Yes
Forced                                   : No
Color range                              : Limited
Color primaries                          : BT.709
Transfer characteristics                 : BT.709
Matrix coefficients                      : BT.709

Audio #1
ID                                       : 2
Format                                   : AAC LC
Format/Info                              : Advanced Audio Codec Low Complexity
Codec ID                                 : A_AAC-2
Duration                                 : 2 h 32 min
Bit rate                                 : 96.0 kb/s
Channel(s)                               : 2 channels
Channel layout                           : L R
Sampling rate                            : 48.0 kHz
Frame rate                               : 46.875 FPS (1024 SPF)
Compression mode                         : Lossy
Delay relative to video                  : -21 ms
Stream size                              : 105 MiB (6%)
Title                                    : DownLoaded From HDHub4u.Surf
Language                                 : Telugu
Default                                  : No
Forced                                   : No

Audio #2
ID                                       : 3
Format                                   : MPEG Audio
Format version                           : Version 1
Format profile                           : Layer 3
Codec ID                                 : A_MPEG/L3
Codec ID/Hint                            : MP3
Duration                                 : 2 h 32 min
Bit rate mode                            : Constant
Bit rate                                 : 320 kb/s
Channel(s)                               : 2 channels
Sampling rate                            : 48.0 kHz
Frame rate                               : 41.667 FPS (1152 SPF)
Compression mode                         : Lossy
Delay relative to video                  : -11 ms
Stream size                              : 350 MiB (21%)
Title                                    : DownLoaded From HDHub4u.Surf
Writing library                          : LAME3.100
Language                                 : Hindi
Default                                  : Yes
Forced                                   : No




SCREENSHOTS















Keep Visiting HDHub4u.Surf For More Exusive MoVies



Files:

Oxygen (2020) UNCUT 720p WEBRip Dual Audio [Hindi (Clean)+Telugu] x264 ESubs -HDHub4u.Surf
  • ~Sample~Oxygen (2020) UNCUT 720p WEBRip Dual Audio [Hindi (Clean)+Telugu] -HDHub4u.Surf.mkv (28.0 MB)
  • Oxygen (2020) UNCUT 720p WEBRip Dual Audio [Hindi (Clean)+Telugu] x264 ESubs -HDHub4u.Surf.mkv (1.6 GB)

Comments

Code:

  • udp://tracker.coppersurfer.tk:6969/announce
  • udp://tracker.leechers-paradise.org:6969/announce
  • udp://tracker.pirateparty.gr:6969/announce
  • udp://eddie4.nl:6969/announce
  • udp://tracker.zer0day.to:1337/announce
  • udp://9.rarbg.me:2720/announce
  • udp://9.rarbg.to:2750/announce
  • udp://public.popcorn-tracker.org:6969/announce
  • udp://p4p.arenabg.ch:1337/announce
  • udp://tracker.opentrackr.org:1337/announce
  • udp://ipv4.tracker.harry.lu:80/announce
  • http://open.kickasstracker.com/announce
  • http://tracker.devil-torrents.pl/announce
  • http://t.nyaatracker.com:80/announce
  • http://retracker.mgts.by:80/announce
  • http://retracker.mgts.by:80/announce
  • http://t.nyaatracker.com:80/announce
  • http://tracker.city9x.com:2710/announce
  • http://tracker.electro-torrent.pl:80/announce
  • udp://bt.xxx-tracker.com:2710/announce
  • udp://retracker.lanta-net.ru:2710/announce
  • udp://tracker.coppersurfer.tk:6969/announce
  • udp://182.176.139.129:6969/announce
  • udp://9.rarbg.me:2720/announce
  • udp://9.rarbg.to:2740/announce
  • udp://public.popcorn-tracker.org:6969/announce
  • udp://tracker.opentrackr.org:1337/announce
  • udp://tracker.internetwarriors.net:1337/announce
  • udp://tracker.coppersurfer.tk:6969/announce
  • udp://tracker.vanitycore.co:6969/announce
  • udp://tracker.pirateparty.gr:6969/announce
  • udp://tracker.internetwarriors.net:1337/announce
  • udp://open.demonii.si:1337/announce