Boris Brejcha - Space Diver (2020) Flac

  • Category Music
  • Type Lossless
  • Language English
  • Total size 618.3 MB
  • Uploaded By was95was
  • Downloads 114
  • Last checked 1 week ago
  • Date uploaded 2 weeks ago
  • Seeders 10
  • Leechers 1

Infohash : 22EF8C73A808AC7F697B3E6A910748AEC925AF29



Quality-Lossless
Release-2020
Duration-01:34:09
File Size-648 MB
Genre-Electro
Cover Size-1400px

----------------------------------------------------------------------------------------------
Analyzed: Space Diver / Artist: Boris Brejcha
----------------------------------------------------------------------------------------------
DR Peak RMS Duration Title [codec]
----------------------------------------------------------------------------------------------
DR4 -0.10 dB -7.13 dB 9:24 01 - Gravity [flac]
DR6 -0.02 dB -8.50 dB 7:51 02 - Happinezz [flac]
DR6 -0.02 dB -7.03 dB 8:00 03 - Never Look Back [flac]
DR6 -0.02 dB -7.41 dB 8:43 04 - Lieblingsmensch [flac]
DR4 -0.02 dB -6.27 dB 6:37 05 - Space Diver [flac]
DR4 -0.01 dB -6.74 dB 8:00 06 - To The Moon And Back [flac]
DR5 -0.02 dB -6.87 dB 8:08 07 - Blue Lake [flac]
DR5 -0.02 dB -7.46 dB 7:16 08 - Take It Smart [flac]
DR5 -0.02 dB -6.98 dB 7:12 09 - Future [flac]
DR5 -0.02 dB -7.10 dB 7:37 10 - The Troublemakerz [flac]
DR5 -0.02 dB -6.86 dB 7:44 11 - Kittys Journey [flac]
DR7 -0.02 dB -8.75 dB 7:30 12 - Game Over [flac]
----------------------------------------------------------------------------------------------
Number of files: 12
Official DR value: DR5

Sampling rate: 44100 Hz
Average bitrate: 916kbs
Bits per sample: 16 bit

Files:

Boris Brejcha - Space Diver (2020) Flac
  • 01 - Gravity.flac (59.9 MB)
  • 02 - Happinezz.flac (50.6 MB)
  • 03 - Never Look Back.flac (54.4 MB)
  • 04 - Lieblingsmensch.flac (56.1 MB)
  • 05 - Space Diver.flac (43.3 MB)
  • 06 - To The Moon And Back.flac (51.9 MB)
  • 07 - Blue Lake.flac (55.3 MB)
  • 08 - Take It Smart.flac (47.3 MB)
  • 09 - Future.flac (49.2 MB)
  • 10 - The Troublemakerz.flac (53.0 MB)
  • 11 - Kittys Journey.flac (51.5 MB)
  • 12 - Game Over.flac (45.4 MB)
  • cover.jpg (409.6 KB)
  • dr14.txt (1.4 KB)

There are currently no comments. Feel free to leave one :)

Code:

  • udp://tracker.piratepublic.com:1337/announce
  • udp://tracker.pirateparty.gr:6969/announce
  • udp://tracker.coppersurfer.tk:6969/announce
  • udp://tracker.leechers-paradise.org:6969/announce
  • udp://9.rarbg.com:2710/announce
  • http://p4p.arenabg.com:1337/announce
  • http://explodie.org:6969/announce
  • udp://tracker.opentrackr.org:1337/announce
  • udp://exodus.desync.com:6969/announce
  • udp://tracker.leechers-paradise.org:6969/announce
  • udp://tracker.zer0day.to:1337/announce
  • udp://open.demonii.si:1337/announce
  • udp://exodus.desync.com:6969/announce
  • udp://tracker.iamhansen.xyz:2000/announce