Amazing Stories (2020) S01E02 The Heat REPACK (1080p ATVP Webrip ...

  • Category TV
  • Type HEVC/x265
  • Language English
  • Total size 1.9 GB
  • Uploaded By Goki
  • Downloads 462
  • Last checked 1 week ago
  • Date uploaded 2 weeks ago
  • Seeders 14
  • Leechers 2

Infohash : 859506A183A7E6A2F1F14A0B9EB0DF885E972CD1






Amazing Stories (2020) IMDB

Note: Reason for repack is the original post had video problems.












Media Information



Unique ID : 305889881944946377481806695199432513051 (0xE6203F92B46210A49468B69992B4161B)
Complete name : Amazing Stories (2020) S01E02 The Heat REPACK (1080p ATVP Webrip x265 10bit EAC3 5.1 Atmos - Goki)[TAoE].mkv
Format : Matroska
Format version : Version 4
File size : 1.88 GiB
Duration : 53 min 5 s
Overall bit rate : 5 055 kb/s
Movie name : Amazing Stories (2020) S01E02 The Heat (1080p ATVP Webrip x265 10bit EAC3 5.1 Atmos - Goki)[TAoE].mkv
Encoded date : UTC 2020-03-14 04:41:19
Writing application : mkvmerge v28.2.0 ('The Awakening') 64-bit
Writing library : libebml v1.3.6 + libmatroska v1.4.9

Video
ID : 1
Format : HEVC
Format/Info : High Efficiency Video Coding
Format profile : Main [email protected]@Main
Codec ID : V_MPEGH/ISO/HEVC
Duration : 53 min 5 s
Bit rate : 4 281 kb/s
Width : 1 920 pixels
Height : 960 pixels
Display aspect ratio : 2.000
Frame rate mode : Constant
Frame rate : 23.976 (24000/1001) FPS
Color space : YUV
Chroma subsampling : 4:2:0
Bit depth : 10 bits
Bits/(Pixel*Frame) : 0.097
Stream size : 1.59 GiB (85%)
Writing library : x265 3.2+35-acc5d16999e2:[Windows][GCC 9.2.1][64 bit] 10bit
Encoding settings : cpuid=1111039 / frame-threads=2 / numa-pools=6 / wpp / no-pmode / no-pme / no-psnr / no-ssim / log-level=2 / input-csp=1 / input-res=1920x960 / interlace=0 / total-frames=0 / level-idc=0 / high-tier=1 / uhd-bd=0 / ref=4 / no-allow-non-conformance / no-repeat-headers / annexb / no-aud / no-hrd / info / hash=0 / no-temporal-layers / open-gop / min-keyint=23 / keyint=250 / gop-lookahead=0 / bframes=8 / b-adapt=2 / b-pyramid / bframe-bias=0 / rc-lookahead=80 / lookahead-slices=4 / scenecut=40 / hist-scenecut=0 / radl=0 / no-splice / no-intra-refresh / ctu=64 / min-cu-size=8 / no-rect / no-amp / max-tu-size=32 / tu-inter-depth=1 / tu-intra-depth=1 / limit-tu=0 / rdoq-level=2 / dynamic-rd=0.00 / no-ssim-rd / signhide / no-tskip / nr-intra=0 / nr-inter=0 / no-constrained-intra / no-strong-intra-smoothing / max-merge=3 / limit-refs=3 / limit-modes / me=3 / subme=5 / merange=57 / temporal-mvp / no-frame-dup / no-hme / weightp / no-weightb / no-analyze-src-pics / deblock=0:0 / sao / no-sao-non-deblock / rd=4 / selective-sao=4 / no-early-skip / rskip / no-fast-intra / no-tskip-fast / no-cu-lossless / no-b-intra / no-splitrd-skip / rdpenalty=0 / psy-rd=1.30 / psy-rdoq=2.00 / no-rd-refine / no-lossless / cbqpoffs=0 / crqpoffs=0 / rc=crf / crf=19.5 / qcomp=0.60 / qpstep=4 / stats-write=0 / stats-read=0 / ipratio=1.40 / pbratio=1.30 / aq-mode=4 / aq-strength=1.10 / cutree / zone-count=0 / no-strict-cbr / qg-size=32 / no-rc-grain / qpmax=69 / qpmin=0 / no-const-vbv / sar=1 / overscan=0 / videoformat=5 / range=0 / colorprim=2 / transfer=2 / colormatrix=2 / chromaloc=0 / display-window=0 / cll=0,0 / min-luma=0 / max-luma=1023 / log2-max-poc-lsb=8 / vui-timing-info / vui-hrd-info / slices=1 / no-opt-qp-pps / no-opt-ref-list-length-pps / no-multi-pass-opt-rps / scenecut-bias=0.05 / hist-threshold=0.01 / no-opt-cu-delta-qp / no-aq-motion / no-hdr10 / no-hdr10-opt / no-dhdr10-opt / no-idr-recovery-sei / analysis-reuse-level=0 / analysis-save-reuse-level=0 / analysis-load-reuse-level=0 / scale-factor=0 / refine-intra=0 / refine-inter=0 / refine-mv=1 / refine-ctu-distortion=0 / no-limit-sao / ctu-info=0 / no-lowpass-dct / refine-analysis-type=0 / copy-pic=1 / max-ausize-factor=1.0 / no-dynamic-refine / no-single-sei / no-hevc-aq / no-svt / no-field / qp-adaptation-range=1.00 / no-scenecut-aware-qpconformance-window-offsets / right=0 / bottom=0
Language : English
Default : Yes
Forced : No
Color range : Limited

Audio
ID : 2
Format : E-AC-3 JOC
Format/Info : Enhanced AC-3 with Joint Object Coding
Commercial name : Dolby Digital Plus with Dolby Atmos
Codec ID : A_EAC3
Duration : 53 min 5 s
Bit rate mode : Constant
Bit rate : 768 kb/s
Channel(s) : 6 channels
Channel layout : L R C LFE Ls Rs
Sampling rate : 48.0 kHz
Frame rate : 31.250 FPS (1536 SPF)
Compression mode : Lossy
Stream size : 292 MiB (15%)
Language : English
Service kind : Complete Main
Default : Yes
Forced : No
Complexity index : 16
Number of dynamic objects : 15
Bed channel count : 1 channel
Bed channel configuration : LFE

Text #1
ID : 3
Format : UTF-8
Codec ID : S_TEXT/UTF8
Codec ID/Info : UTF-8 Plain Text
Duration : 50 min 0 s
Bit rate : 49 b/s
Count of elements : 536
Stream size : 18.2 KiB (0%)
Language : English
Default : No
Forced : No

Text #2
ID : 4
Format : UTF-8
Codec ID : S_TEXT/UTF8
Codec ID/Info : UTF-8 Plain Text
Duration : 50 min 10 s
Bit rate : 56 b/s
Count of elements : 654
Stream size : 20.7 KiB (0%)
Title : English (SDH)
Language : English
Default : No
Forced : No

Text #3
ID : 5
Format : UTF-8
Codec ID : S_TEXT/UTF8
Codec ID/Info : UTF-8 Plain Text
Duration : 50 min 22 s
Bit rate : 72 b/s
Count of elements : 557
Stream size : 26.6 KiB (0%)
Language : Arabic
Default : No
Forced : No

Text #4
ID : 6
Format : UTF-8
Codec ID : S_TEXT/UTF8
Codec ID/Info : UTF-8 Plain Text
Duration : 50 min 22 s
Bit rate : 71 b/s
Count of elements : 547
Stream size : 26.5 KiB (0%)
Language : Bulgarian
Default : No
Forced : No

Text #5
ID : 7
Format : UTF-8
Codec ID : S_TEXT/UTF8
Codec ID/Info : UTF-8 Plain Text
Duration : 51 min 53 s
Bit rate : 47 b/s
Count of elements : 558
Stream size : 18.1 KiB (0%)
Title : Cantonese (Traditional)
Language : Chinese
Default : No
Forced : No

Text #6
ID : 8
Format : UTF-8
Codec ID : S_TEXT/UTF8
Codec ID/Info : UTF-8 Plain Text
Duration : 51 min 47 s
Bit rate : 43 b/s
Count of elements : 557
Stream size : 16.3 KiB (0%)
Title : Chinese (Simplified)
Language : Chinese
Default : No
Forced : No

Text #7
ID : 9
Format : UTF-8
Codec ID : S_TEXT/UTF8
Codec ID/Info : UTF-8 Plain Text
Duration : 51 min 53 s
Bit rate : 46 b/s
Count of elements : 558
Stream size : 17.6 KiB (0%)
Title : Chinese (Traditional)
Language : Chinese
Default : No
Forced : No

Text #8
ID : 10
Format : UTF-8
Codec ID : S_TEXT/UTF8
Codec ID/Info : UTF-8 Plain Text
Duration : 50 min 29 s
Bit rate : 46 b/s
Count of elements : 545
Stream size : 17.3 KiB (0%)
Language : Czech
Default : No
Forced : No

Text #9
ID : 11
Format : UTF-8
Codec ID : S_TEXT/UTF8
Codec ID/Info : UTF-8 Plain Text
Duration : 50 min 6 s
Bit rate : 47 b/s
Count of elements : 546
Stream size : 17.5 KiB (0%)
Language : Danish
Default : No
Forced : No

Text #10
ID : 12
Format : UTF-8
Codec ID : S_TEXT/UTF8
Codec ID/Info : UTF-8 Plain Text
Duration : 50 min 22 s
Bit rate : 44 b/s
Count of elements : 536
Stream size : 16.3 KiB (0%)
Language : Dutch
Default : No
Forced : No

Text #11
ID : 13
Format : UTF-8
Codec ID : S_TEXT/UTF8
Codec ID/Info : UTF-8 Plain Text
Duration : 50 min 22 s
Bit rate : 44 b/s
Count of elements : 549
Stream size : 16.4 KiB (0%)
Language : Estonian
Default : No
Forced : No

Text #12
ID : 14
Format : UTF-8
Codec ID : S_TEXT/UTF8
Codec ID/Info : UTF-8 Plain Text
Duration : 50 min 6 s
Bit rate : 47 b/s
Count of elements : 546
Stream size : 17.6 KiB (0%)
Language : Finnish
Default : No
Forced : No

Text #13
ID : 15
Format : UTF-8
Codec ID : S_TEXT/UTF8
Codec ID/Info : UTF-8 Plain Text
Duration : 50 min 32 s
Bit rate : 43 b/s
Count of elements : 584
Stream size : 16.0 KiB (0%)
Title : French (Canada)
Language : French
Default : No
Forced : No

Text #14
ID : 16
Format : UTF-8
Codec ID : S_TEXT/UTF8
Codec ID/Info : UTF-8 Plain Text
Duration : 50 min 29 s
Bit rate : 43 b/s
Count of elements : 584
Stream size : 16.0 KiB (0%)
Title : French (France)
Language : French
Default : No
Forced : No

Text #15
ID : 17
Format : UTF-8
Codec ID : S_TEXT/UTF8
Codec ID/Info : UTF-8 Plain Text
Duration : 50 min 29 s
Bit rate : 57 b/s
Count of elements : 575
Stream size : 21.3 KiB (0%)
Language : German
Default : No
Forced : No

Text #16
ID : 18
Format : UTF-8
Codec ID : S_TEXT/UTF8
Codec ID/Info : UTF-8 Plain Text
Duration : 50 min 22 s
Bit rate : 83 b/s
Count of elements : 548
Stream size : 31.0 KiB (0%)
Language : Greek
Default : No
Forced : No

Text #17
ID : 19
Format : UTF-8
Codec ID : S_TEXT/UTF8
Codec ID/Info : UTF-8 Plain Text
Duration : 50 min 29 s
Bit rate : 70 b/s
Count of elements : 558
Stream size : 26.0 KiB (0%)
Language : Hebrew
Default : No
Forced : No

Text #18
ID : 20
Format : UTF-8
Codec ID : S_TEXT/UTF8
Codec ID/Info : UTF-8 Plain Text
Duration : 50 min 29 s
Bit rate : 125 b/s
Count of elements : 558
Stream size : 46.4 KiB (0%)
Language : Hindi
Default : No
Forced : No

Text #19
ID : 21
Format : UTF-8
Codec ID : S_TEXT/UTF8
Codec ID/Info : UTF-8 Plain Text
Duration : 50 min 29 s
Bit rate : 48 b/s
Count of elements : 546
Stream size : 18.0 KiB (0%)
Language : Hungarian
Default : No
Forced : No

Text #20
ID : 22
Format : UTF-8
Codec ID : S_TEXT/UTF8
Codec ID/Info : UTF-8 Plain Text
Duration : 50 min 22 s
Bit rate : 49 b/s
Count of elements : 555
Stream size : 18.3 KiB (0%)
Language : Indonesian
Default : No
Forced : No

Text #21
ID : 23
Format : UTF-8
Codec ID : S_TEXT/UTF8
Codec ID/Info : UTF-8 Plain Text
Duration : 50 min 29 s
Bit rate : 46 b/s
Count of elements : 540
Stream size : 17.2 KiB (0%)
Language : Italian
Default : No
Forced : No

Text #22
ID : 24
Format : UTF-8
Codec ID : S_TEXT/UTF8
Codec ID/Info : UTF-8 Plain Text
Duration : 51 min 53 s
Bit rate : 41 b/s
Count of elements : 562
Stream size : 15.6 KiB (0%)
Language : Japanese
Default : No
Forced : No

Text #23
ID : 25
Format : UTF-8
Codec ID : S_TEXT/UTF8
Codec ID/Info : UTF-8 Plain Text
Duration : 50 min 22 s
Bit rate : 50 b/s
Count of elements : 549
Stream size : 18.6 KiB (0%)
Language : Latvian
Default : No
Forced : No

Text #24
ID : 26
Format : UTF-8
Codec ID : S_TEXT/UTF8
Codec ID/Info : UTF-8 Plain Text
Duration : 50 min 22 s
Bit rate : 47 b/s
Count of elements : 549
Stream size : 17.5 KiB (0%)
Language : Lithuanian
Default : No
Forced : No

Text #25
ID : 27
Format : UTF-8
Codec ID : S_TEXT/UTF8
Codec ID/Info : UTF-8 Plain Text
Duration : 50 min 6 s
Bit rate : 51 b/s
Count of elements : 548
Stream size : 18.8 KiB (0%)
Language : Malay
Default : No
Forced : No

Text #26
ID : 28
Format : UTF-8
Codec ID : S_TEXT/UTF8
Codec ID/Info : UTF-8 Plain Text
Duration : 50 min 6 s
Bit rate : 48 b/s
Count of elements : 548
Stream size : 17.8 KiB (0%)
Language : Norwegian
Default : No
Forced : No

Text #27
ID : 29
Format : UTF-8
Codec ID : S_TEXT/UTF8
Codec ID/Info : UTF-8 Plain Text
Duration : 50 min 29 s
Bit rate : 43 b/s
Count of elements : 553
Stream size : 16.2 KiB (0%)
Language : Polish
Default : No
Forced : No

Text #28
ID : 30
Format : UTF-8
Codec ID : S_TEXT/UTF8
Codec ID/Info : UTF-8 Plain Text
Duration : 50 min 22 s
Bit rate : 51 b/s
Count of elements : 549
Stream size : 19.0 KiB (0%)
Language : Portuguese
Default : No
Forced : No

Text #29
ID : 31
Format : UTF-8
Codec ID : S_TEXT/UTF8
Codec ID/Info : UTF-8 Plain Text
Duration : 50 min 29 s
Bit rate : 42 b/s
Count of elements : 555
Stream size : 15.7 KiB (0%)
Title : Portuguese (Brazil)
Language : Portuguese
Default : No
Forced : No

Text #30
ID : 32
Format : UTF-8
Codec ID : S_TEXT/UTF8
Codec ID/Info : UTF-8 Plain Text
Duration : 50 min 29 s
Bit rate : 79 b/s
Count of elements : 558
Stream size : 29.3 KiB (0%)
Language : Russian
Default : No
Forced : No

Text #31
ID : 33
Format : UTF-8
Codec ID : S_TEXT/UTF8
Codec ID/Info : UTF-8 Plain Text
Duration : 50 min 29 s
Bit rate : 40 b/s
Count of elements : 541
Stream size : 15.0 KiB (0%)
Language : Slovak
Default : No
Forced : No

Text #32
ID : 34
Format : UTF-8
Codec ID : S_TEXT/UTF8
Codec ID/Info : UTF-8 Plain Text
Duration : 50 min 22 s
Bit rate : 41 b/s
Count of elements : 550
Stream size : 15.2 KiB (0%)
Language : Slovenian
Default : No
Forced : No

Text #33
ID : 35
Format : UTF-8
Codec ID : S_TEXT/UTF8
Codec ID/Info : UTF-8 Plain Text
Duration : 50 min 23 s
Bit rate : 48 b/s
Count of elements : 545
Stream size : 18.0 KiB (0%)
Title : Spanish (Latin America)
Language : Spanish
Default : No
Forced : No

Text #34
ID : 36
Format : UTF-8
Codec ID : S_TEXT/UTF8
Codec ID/Info : UTF-8 Plain Text
Duration : 52 min 3 s
Bit rate : 47 b/s
Count of elements : 641
Stream size : 18.3 KiB (0%)
Title : Spanish (Spain)
Language : Spanish
Default : No
Forced : No

Text #35
ID : 37
Format : UTF-8
Codec ID : S_TEXT/UTF8
Codec ID/Info : UTF-8 Plain Text
Duration : 50 min 22 s
Bit rate : 48 b/s
Count of elements : 545
Stream size : 17.8 KiB (0%)
Language : Swedish
Default : No
Forced : No

Text #36
ID : 38
Format : UTF-8
Codec ID : S_TEXT/UTF8
Codec ID/Info : UTF-8 Plain Text
Duration : 50 min 22 s
Bit rate : 158 b/s
Count of elements : 557
Stream size : 58.5 KiB (0%)
Language : Tamil
Default : No
Forced : No

Text #37
ID : 39
Format : UTF-8
Codec ID : S_TEXT/UTF8
Codec ID/Info : UTF-8 Plain Text
Duration : 50 min 22 s
Bit rate : 159 b/s
Count of elements : 557
Stream size : 58.7 KiB (0%)
Language : Telugu
Default : No
Forced : No

Text #38
ID : 40
Format : UTF-8
Codec ID : S_TEXT/UTF8
Codec ID/Info : UTF-8 Plain Text
Duration : 50 min 22 s
Bit rate : 127 b/s
Count of elements : 557
Stream size : 47.2 KiB (0%)
Language : Thai
Default : No
Forced : No

Text #39
ID : 41
Format : UTF-8
Codec ID : S_TEXT/UTF8
Codec ID/Info : UTF-8 Plain Text
Duration : 50 min 29 s
Bit rate : 81 b/s
Count of elements : 558
Stream size : 30.1 KiB (0%)
Language : Ukrainian
Default : No
Forced : No

Text #40
ID : 42
Format : UTF-8
Codec ID : S_TEXT/UTF8
Codec ID/Info : UTF-8 Plain Text
Duration : 50 min 29 s
Bit rate : 65 b/s
Count of elements : 552
Stream size : 24.2 KiB (0%)
Language : Vietnamese
Default : No
Forced : No

Source


1080p AppleTV+ WEB-DL CasStudio
256957940110232085124393793347500310722 (0xC1504C93D349F9CDA51108B9283B00C2)

Hello everyone,
We are TAoE, a small team of passionate encoders who love encoding. We try our best to provide you with high quality releases.
If you would like to join the team just drop us a comment or send us a message.




.........................................................................................................................................


Files:

  • Amazing Stories (2020) S01E02 The Heat REPACK (1080p ATVP Webrip x265 10bit EAC3 5.1 Atmos - Goki)[TAoE].mkv (1.9 GB)

Comments

Code:

  • udp://tracker.coppersurfer.tk:6969/announce
  • udp://tracker.opentrackr.org:1337/announce
  • udp://tracker.torrent.eu.org:451/announce
  • udp://tracker.internetwarriors.net:1337/announce
  • http://tracker.opentrackr.org:1337/announce
  • udp://denis.stalker.upeer.me:6969/announce
  • udp://tracker.coppersurfer.tk:6969
  • udp://tracker.internetwarriors.net:1337
  • udp://9.rarbg.me:2720/announce
  • udp://explodie.org:6969/announce
  • udp://tracker.cyberia.is:6969/announce
  • udp://thetracker.org/announce
  • udp://open.demonii.si:1337/announce