Ready.to.Mingle.2019.HDRip.XviD.AC3.With.Sample.LLG

  • Category Movies
  • Type Divx/Xvid
  • Language English
  • Total size 1.1 GB
  • Uploaded By LifeLongg
  • Downloads 163
  • Last checked 1 week ago
  • Date uploaded 2 weeks ago
  • Seeders 4
  • Leechers 3

Infohash : BDAA883F87577AC59AEE31AE6FB4001D157EFA85

Quote:




******************************Thumbnail:**********************



******************************Screenshots:********************

screenshot 1

screenshot 2

screenshot 3

screenshot 4

screenshot 5

screenshot 6

screenshot 7

screenshot 8

screenshot 9

******************************Poster:**********************




******************************************************

18+.Ready.to.Mingle.2019.HDRip.XviD.AC3.With.Sample.LLG.mp4
Format : MPEG-4
Format profile : Base Media
Codec ID : isom (isom/iso2/avc1/mp41)
File size : 1.07 GiB
Duration : 1 h 37 min
Overall bit rate mode : Variable
Overall bit rate : 1 565 kb/s


Video
ID : 1
Format : AVC
Format/Info : Advanced Video Codec
Format profile : [email protected]
Format settings : CABAC / 1 Ref Frames
Format settings, CABAC : Yes
Format settings, Reference frames : 1 frame
Codec ID : avc1
Codec ID/Info : Advanced Video Coding
Duration : 1 h 37 min
Bit rate mode : Variable
Bit rate : 1 178 kb/s
Maximum bit rate : 3 600 kb/s
Width : 720 pixels
Height : 302 pixels
Display aspect ratio : 2.40:1
Frame rate mode : Constant
Frame rate : 23.976 (23976/1000) FPS
Color space : YUV
Chroma subsampling : 4:2:0
Bit depth : 8 bits
Scan type : Progressive
Bits/(Pixel*Frame) : 0.226
Stream size : 822 MiB (75%)

Audio
ID : 2
Format : AC-3
Format/Info : Audio Coding 3
Commercial name : Dolby Digital
Codec ID : ac-3
Duration : 1 h 37 min
Bit rate mode : Constant
Bit rate : 384 kb/s
Channel(s) : 6 channels
Channel layout : L R C LFE Ls Rs
Sampling rate : 48.0 kHz
Frame rate : 31.250 FPS (1536 SPF)
Compression mode : Lossy
Stream size : 268 MiB (25%)
Title : Surround
Language : English
Service kind : Complete Main
Default : Yes
Alternate group : 1



********************************************************


Files:

18+.Ready.to.Mingle.2019.HDRip.XviD.AC3.With.Sample.LLG
  • Sample.ts (28.0 MB)
  • SAMPLE 2.ts (31.7 MB)
  • 18+.Ready.to.Mingle.2019.HDRip.XviD.AC3.With.Sample.LLG.mp4 (1.1 GB)

There are currently no comments. Feel free to leave one :)

Code:

  • udp://tracker.openbittorrent.com:80/announce
  • udp://tracker.opentrackr.org:1337/announce