Star.Wars.Episode.IX.The.Rise.of.Skywalker.2019.1080p.AMZN.WEBRip...

  • Category Movies
  • Type HD
  • Language English
  • Total size 9.6 GB
  • Uploaded By SirMadMax
  • Downloads 2593
  • Last checked 1 week ago
  • Date uploaded 2 weeks ago
  • Seeders 305
  • Leechers 285

Star Wars: The Rise of Skywalker

ActionAdventureScience Fiction

The surviving Resistance faces the First Order once again as the journey of Rey, Finn and Poe Dameron continues. With the power and knowledge of generations behind them, the final battle begins.

Infohash : 831B656C759CE35C58E99FD63296E22369D0B0B1



Plot: While the First Order continues to ravage the galaxy, Rey finalizes her training as a Jedi. But danger suddenly rises from the ashes as the evil Emperor Palpatine mysteriously returns from the dead. While working with Finn and Poe Dameron to fulfill a new mission, Rey will not only face Kylo Ren once more, but she will also finally discover the truth about her parents as well as a deadly secret that could determine her future and the fate of the ultimate final showdown that is to come.

Genre: Action | Adventure | Fantasy | Sci-Fi
IMDB Rating: 6.8/10 From 262,901 Users
Directed by: J.J. Abrams
Starring: Carrie Fisher , Mark Hamill , Adam Driver , Daisy Ridley

Video
ID : 1
Format : AVC
Format/Info : Advanced Video Codec
Format profile : [email protected]
Format settings : CABAC / 4 Ref Frames
Format settings, CABAC : Yes
Format settings, Reference frames : 4 frames
Codec ID : V_MPEG4/ISO/AVC
Duration : 2 h 21 min
Bit rate mode : Constant
Bit rate : 9 053 kb/s
Nominal bit rate : 10 000 kb/s
Width : 1 920 pixels
Height : 1 080 pixels
Display aspect ratio : 16:9
Frame rate mode : Constant
Frame rate : 23.976 (24000/1001) FPS
Color space : YUV
Chroma subsampling : 4:2:0
Bit depth : 8 bits
Scan type : Progressive
Bits/(Pixel*Frame) : 0.182
Stream size : 8.97 GiB (93%)
Default : Yes
Forced : No
Color range : Limited
Color primaries : BT.709
Transfer characteristics : BT.709
Matrix coefficients : BT.709

Audio
ID : 2
Format : E-AC-3
Format/Info : Enhanced AC-3
Commercial name : Dolby Digital Plus
Codec ID : A_EAC3
Duration : 2 h 21 min
Bit rate mode : Constant
Bit rate : 640 kb/s
Channel(s) : 6 channels
Channel layout : L R C LFE Ls Rs
Sampling rate : 48.0 kHz
Frame rate : 31.250 FPS (1536 SPF)
Compression mode : Lossy
Stream size : 649 MiB (7%)
Language : English
Service kind : Complete Main
Default : Yes
Forced : No

Text #1
ID : 3
Format : UTF-8
Codec ID : S_TEXT/UTF8
Codec ID/Info : UTF-8 Plain Text
Duration : 2 h 11 min
Bit rate : 48 b/s
Count of elements : 1895
Stream size : 47.1 KiB (0%)
Language : English
Default : No
Forced : No

Text #2
ID : 4
Format : UTF-8
Codec ID : S_TEXT/UTF8
Codec ID/Info : UTF-8 Plain Text
Duration : 2 h 11 min
Bit rate : 48 b/s
Count of elements : 1895
Stream size : 47.1 KiB (0%)
Title : SDH
Language : English
Default : No
Forced : No

Menu
00:00:00.000 : en:Studio Logo
00:00:08.000 : en:Prologue
00:01:44.000 : en:Kylo\'s search across the galaxy
00:06:42.000 : en:Retrieving a secret message
00:10:03.000 : en:Rey continues her training
00:13:40.000 : en:Time for a new mission
00:19:24.000 : en:Kylo prepares his officers
00:21:23.000 : en:The desert of Pasana
00:25:10.000 : en:Meeting an old ally
00:27:14.000 : en:Racing through the desert
00:30:41.000 : en:Optimism
00:31:04.000 : en:Exploring old Sith tunnels
00:35:48.000 : en:Tragedy in the desert
00:41:37.000 : en:A new plan
00:45:28.000 : en:A trip to Kjimi
00:50:37.000 : en:The location of the last Sith Wayfinder
00:55:42.000 : en:Rescuing Chewie
00:58:48.000 : en:The truth about Rey\'s parents
01:02:18.000 : en:A spy in the First Order
01:06:22.000 : en:The search for Exegol continues
01:13:30.000 : en:The last Sith Wayfinder
01:17:55.000 : en:Leia\'s final mission
01:24:30.000 : en:Kylo Ren vs. Ben Solo
01:27:01.000 : en:The Final Order Begins
01:30:22.000 : en:Some things are stronger than blood
01:35:00.000 : en:A last stand for the galaxy
01:38:47.000 : en:The battle begins
01:43:02.000 : en:Palpatine welcomes Rey
01:45:27.000 : en:Attacking the navigation tower
01:47:01.000 : en:The last hope
01:53:27.000 : en:Stronger together
01:55:30.000 : en:The Force will be with you, always
02:00:13.000 : en:A rescue mission
02:01:37.000 : en:The true meaning of sacrifice
02:06:35.000 : en:Celebration
02:09:42.000 : en:A final resting place
02:12:25.000 : en:End Credits
02:21:52.000 : en:Documentary: The Skywalker Legacy



Files:

Star.Wars.Episode.IX.The.Rise.of.Skywalker.2019.1080p.AMZN.WEBRip.DDP5.1.x264-NTG
  • RARBG.txt (0.0 KB)
  • Star.Wars.Episode.IX.The.Rise.of.Skywalker.2019.1080p.AMZN.WEB-DL.DDP5.1.H.264-NTG.mkv (9.6 GB)

There are currently no comments. Feel free to leave one :)

Code:

  • http://tracker.trackerfix.com:80/announce
  • udp://9.rarbg.me:2940/announce
  • udp://9.rarbg.to:2740/announce