Star.Wars.Episode.IX.The.Rise.of.Skywalker.2019.Digital.EXTRAS.On...

  • Category Movies
  • Type HD
  • Language English
  • Total size 12.0 GB
  • Uploaded By SirMadMax
  • Downloads 923
  • Last checked 1 week ago
  • Date uploaded 2 weeks ago
  • Seeders 48
  • Leechers 32

Star Wars: The Rise of Skywalker

ActionAdventureScience Fiction

The surviving Resistance faces the First Order once again as the journey of Rey, Finn and Poe Dameron continues. With the power and knowledge of generations behind them, the final battle begins.

Infohash : 99F205B63A05D61BC4DC02E9EB6DEC321D101882



Extra and deleted scenes from the movie “Star Wars: Episode IX – The Rise of Skywalker”.

Plot: While the First Order continues to ravage the galaxy, Rey finalizes her training as a Jedi. But danger suddenly rises from the ashes as the evil Emperor Palpatine mysteriously returns from the dead. While working with Finn and Poe Dameron to fulfill a new mission, Rey will not only face Kylo Ren once more, but she will also finally discover the truth about her parents as well as a deadly secret that could determine her future and the fate of the ultimate final showdown that is to come.


Video
ID : 1
Format : AVC
Format/Info : Advanced Video Codec
Format profile : [email protected]
Format settings : CABAC / 4 Ref Frames
Format settings, CABAC : Yes
Format settings, Reference frames : 4 frames
Codec ID : V_MPEG4/ISO/AVC
Duration : 2 h 56 min
Bit rate mode : Constant
Bit rate : 9 069 kb/s
Nominal bit rate : 10 000 kb/s
Width : 1 920 pixels
Height : 1 080 pixels
Display aspect ratio : 16:9
Frame rate mode : Constant
Frame rate : 23.976 (24000/1001) FPS
Color space : YUV
Chroma subsampling : 4:2:0
Bit depth : 8 bits
Scan type : Progressive
Bits/(Pixel*Frame) : 0.182
Stream size : 11.2 GiB (93%)
Default : Yes
Forced : No
Color range : Limited
Color primaries : BT.709
Transfer characteristics : BT.709
Matrix coefficients : BT.709

Audio
ID : 2
Format : E-AC-3
Format/Info : Enhanced AC-3
Commercial name : Dolby Digital Plus
Codec ID : A_EAC3
Duration : 2 h 56 min
Bit rate mode : Constant
Bit rate : 640 kb/s
Channel(s) : 6 channels
Channel layout : L R C LFE Ls Rs
Sampling rate : 48.0 kHz
Frame rate : 31.250 FPS (1536 SPF)
Compression mode : Lossy
Stream size : 809 MiB (7%)
Language : English
Service kind : Complete Main
Default : Yes
Forced : No

Text #1
ID : 3
Format : UTF-8
Codec ID : S_TEXT/UTF8
Codec ID/Info : UTF-8 Plain Text
Duration : 2 h 56 min
Bit rate : 103 b/s
Count of elements : 2966
Stream size : 133 KiB (0%)
Language : English
Default : No
Forced : No

Text #2
ID : 4
Format : UTF-8
Codec ID : S_TEXT/UTF8
Codec ID/Info : UTF-8 Plain Text
Duration : 2 h 56 min
Bit rate : 109 b/s
Count of elements : 3122
Stream size : 142 KiB (0%)
Title : SDH
Language : English
Default : No
Forced : No

Menu
00:00:00.000 : en:Documentary: The Skywalker Legacy
02:06:15.496 : en:Pasaana Pursuit: Creating the Speeder Chase
02:20:37.496 : en:Aliens in the Desert
02:26:37.496 : en:D-O: Key to the Past
02:32:11.496 : en:Warwick & Son
02:37:47.496 : en:Cast of Creatures
02:45:34.496 : en:Digital Exclusive: The Maestro’s Finale



Files:

Star.Wars.Episode.IX.The.Rise.of.Skywalker.2019.Digital.EXTRAS.Only.1080p.AMZN.WEBRip.DDP5.1.x264-NTG
  • RARBG.txt (0.0 KB)
  • Star.Wars.Episode.IX-The.Rise.of.Skywalker.2019.Digital.Extras.1080p.AMZN.WEB-DL.DDP5.1.H.264-NTG.mkv (12.0 GB)

Comments

Code:

  • http://tracker.trackerfix.com:80/announce
  • udp://9.rarbg.me:2870/announce
  • udp://9.rarbg.to:2980/announce