The.Grudge.2020.BRRip.XviD.B4ND1T69

  • Category Movies
  • Type Divx/Xvid
  • Language English
  • Total size 736.6 MB
  • Uploaded By B4ND1T69
  • Downloads 364
  • Last checked 1 week ago
  • Date uploaded 2 weeks ago
  • Seeders 19
  • Leechers 6

Infohash : B8828D41663770A5906A1CEAE4CD1922AD04065B

The.Grudge.2020.BRRip.XviD.B4ND1T69



Director: Nicolas Pesce
Writers: Nicolas Pesce (screenplay by), Nicolas Pesce (story by)
Stars: Tara Westwood, Junko Bailey, David Lawrence Brown

Plot/Story:
After a young housewife murders her family in her own house, a single mother and young detective tries to investigate and solve the case. Later, she discovers the house is cursed by a vengeful ghost that dooms those who enter it with a violent death. Now, she runs to save herself and her son from demonic spirits from the cursed house in her neighborhood.

General
Complete name : The.Grudge.2020.BRRip.XviD.B4ND1T69.avi
Format : AVI
Format/Info : Audio Video Interleave
File size : 737 MiB
Duration : 1 h 33 min
Overall bit rate : 1 098 kb/s
Subtitles : Yes...Included(HI)

Video
ID : 0
Format : MPEG-4 Visual
Format profile : Advanced [email protected]
Format settings, BVOP : 2
Format settings, QPel : No
Format settings, GMC : No warppoints
Format settings, Matrix : Default (H.263)
Codec ID : XVID
Codec ID/Hint : XviD
Duration : 1 h 33 min
Bit rate : 957 kb/s
Width : 720 pixels
Height : 304 pixels
Display aspect ratio : 2.35:1
Frame rate : 23.976 (24000/1001) FPS
Color space : YUV
Chroma subsampling : 4:2:0
Bit depth : 8 bits
Scan type : Progressive
Compression mode : Lossy
Bits/(Pixel*Frame) : 0.182
Stream size : 642 MiB (87%)
Writing library : XviD 64

Audio
ID : 1
Format : MPEG Audio
Format version : Version 1
Format profile : Layer 3
Codec ID : 55
Codec ID/Hint : MP3
Duration : 1 h 33 min
Bit rate mode : Constant
Bit rate : 128 kb/s
Channel(s) : 2 channels
Sampling rate : 48.0 kHz
Compression mode : Lossy
Stream size : 85.8 MiB (12%)
Alignment : Aligned on interleaves
Interleave, duration : 24 ms (0.58 video frame)

Screenshots:

https://i.imgur.com/TMe6DNZ.png
https://i.imgur.com/o9pyPmC.png
https://i.imgur.com/jkfCF6X.png
https://i.imgur.com/7KVBaB6.png
https://i.imgur.com/1Nb2oYS.png
https://i.imgur.com/mKEV5Uv.png
https://i.imgur.com/OEbdTOI.png
https://i.imgur.com/1E2nmcV.png









Please Seed For As Long As Possible
Or At Least 1:1 Ratio...Thanks
Enjoy Peeps

Files:

The.Grudge.2020.BRRip.XviD.B4ND1T69
  • 1337x text file.txt (0.1 KB)
  • Downloaded from katcr.co.txt (0.1 KB)
  • The.Grudge.2020.BRRip.XviD.B4ND1T69.srt (57.4 KB)
  • The.Grudge.2020.BRRip.XviD.B4ND1T69.avi (736.5 MB)

There are currently no comments. Feel free to leave one :)

Code:

  • udp://tracker.coppersurfer.tk:6969/announce
  • udp://tracker.pirateparty.gr:6969/announce
  • udp://tracker.opentrackr.org:1337/announce
  • udp://tracker.tiny-vps.com:6969/announce
  • udp://open.demonii.si:1337/announce
  • udp://tracker.torrent.eu.org:451/announce
  • udp://tracker.leechers-paradise.org:6969/announce