Star.Wars.Episode.IX.The.Rise.of.Skywalker.2019.WEBRip.x264-ION10

  • CategoryMovies
  • TypeMp4
  • LanguageEnglish
  • Total size1.3 GB
  • Uploaded BySirMadMax
  • Downloads934
  • Last checkedMar. 30th '20
  • Date uploadedMar. 30th '20
  • Seeders 189
  • Leechers52

Infohash : CB5B20B80C42217AA6985486D94158A9557FFE80



Plot: While the First Order continues to ravage the galaxy, Rey finalizes her training as a Jedi. But danger suddenly rises from the ashes as the evil Emperor Palpatine mysteriously returns from the dead. While working with Finn and Poe Dameron to fulfill a new mission, Rey will not only face Kylo Ren once more, but she will also finally discover the truth about her parents as well as a deadly secret that could determine her future and the fate of the ultimate final showdown that is to come.

Genre: Action | Adventure | Fantasy | Sci-Fi
IMDB Rating: 6.8/10 From 262,901 Users
Directed by: J.J. Abrams
Starring: Carrie Fisher , Mark Hamill , Adam Driver , Daisy Ridley

Video
ID : 1
Format : AVC
Format/Info : Advanced Video Codec
Format profile : [email protected]
Format settings : CABAC / 5 Ref Frames
Format settings, CABAC : Yes
Format settings, Reference frames : 5 frames
Codec ID : avc1
Codec ID/Info : Advanced Video Coding
Duration : 2 h 21 min
Bit rate : 1 100 kb/s
Width : 720 pixels
Height : 302 pixels
Display aspect ratio : 2.40:1
Original display aspect ratio : 2.40:1
Frame rate mode : Constant
Frame rate : 23.976 (24000/1001) FPS
Color space : YUV
Chroma subsampling : 4:2:0
Bit depth : 8 bits
Scan type : Progressive
Bits/(Pixel*Frame) : 0.211
Stream size : 1.09 GiB (81%)
Title : RARBG - Star.Wars.Episode.IX.The.Rise.of.Skywalker.2019.WEBRip.x264-ION10
Writing library : x264 core 152 r2851M ba24899
Encoding settings : cabac=1 / ref=5 / deblock=1:-1:-1 / analyse=0x3:0x113 / me=umh / subme=9 / psy=1 / psy_rd=1.00:0.15 / mixed_ref=1 / me_range=16 / chroma_me=1 / trellis=2 / 8x8dct=1 / cqm=0 / deadzone=21,11 / fast_pskip=1 / chroma_qp_offset=-3 / threads=16 / lookahead_threads=1 / sliced_threads=0 / nr=0 / decimate=1 / interlaced=0 / bluray_compat=0 / constrained_intra=0 / bframes=3 / b_pyramid=2 / b_adapt=2 / b_bias=0 / direct=3 / weightb=1 / open_gop=0 / weightp=2 / keyint=250 / keyint_min=23 / scenecut=40 / intra_refresh=0 / rc_lookahead=50 / rc=2pass / mbtree=1 / bitrate=1100 / ratetol=1.0 / qcomp=0.60 / qpmin=0 / qpmax=69 / qpstep=4 / cplxblur=20.0 / qblur=0.5 / ip_ratio=1.40 / aq=1:1.00
Encoded date : UTC 2020-03-14 08:51:23
Tagged date : UTC 2020-03-14 08:51:23
Codec configuration box : avcC

Audio
ID : 2
Format : AAC LC
Format/Info : Advanced Audio Codec Low Complexity
Codec ID : mp4a-40-2
Duration : 2 h 21 min
Bit rate mode : Constant
Bit rate : 256 kb/s
Channel(s) : 2 channels
Channel layout : L R
Sampling rate : 48.0 kHz
Frame rate : 46.875 FPS (1024 SPF)
Compression mode : Lossy
Stream size : 260 MiB (19%)
Title : RARBG - Star.Wars.Episode.IX.The.Rise.of.Skywalker.2019.WEBRip.x264-ION10
Language : English
Default : Yes
Alternate group : 1
Encoded date : UTC 2020-03-14 08:51:23
Tagged date : UTC 2020-03-14 08:51:23



Files:

Star.Wars.Episode.IX.The.Rise.of.Skywalker.2019.WEBRip.x264-ION10
  • RARBG.txt (0.0 KB)
  • RARBG_DO_NOT_MIRROR.exe (0.1 KB)
  • Star.Wars.Episode.IX.The.Rise.of.Skywalker.2019.WEBRip.x264-ION10.mp4 (1.3 GB)
  • Subs
    • 2_English.srt (114.5 KB)
    • 3_English.srt (114.5 KB)

Code:

  • http://tracker.trackerfix.com:80/announce
  • udp://9.rarbg.me:2780/announce
  • udp://9.rarbg.to:2720/announce