Star.Wars.The.Rise.of.Skywalker.2019.1080p.AMZN.WEB-Rip.DDP5.1.LL...

  • Category Movies
  • Type HD
  • Language English
  • Total size 1.9 GB
  • Uploaded By LifeLongg
  • Downloads 359
  • Last checked 1 week ago
  • Date uploaded 2 weeks ago
  • Seeders 17
  • Leechers 7

Star Wars: The Rise of Skywalker

ActionAdventureScience Fiction

The surviving Resistance faces the First Order once again as the journey of Rey, Finn and Poe Dameron continues. With the power and knowledge of generations behind them, the final battle begins.

Infohash : 8F56FE87FBFDE0832059CCCAD6F7035A9B570CA8

Quote:




******************************Thumbnail:**********************



******************************Screenshots:********************

screenshot 1

screenshot 2

screenshot 3

screenshot 4

screenshot 5

screenshot 6

screenshot 7

screenshot 8

screenshot 9

******************************Poster:**********************




******************************************************

Star.Wars.The.Rise.of.Skywalker.2019.1080p.AMZN.WEB-Rip.DDP5.1.LLG.mp4
Format : MPEG-4
Format profile : Base Media
Codec ID : isom (isom/iso2/avc1/mp41)
File size : 1.93 GiB
Duration : 2 h 21 min
Overall bit rate : 1 947 kb/s
Writing application : Lavf57.83.100

Video
ID : 1
Format : AVC
Format/Info : Advanced Video Codec
Format profile : [email protected]
Format settings : CABAC / 4 Ref Frames
Format settings, CABAC : Yes
Format settings, Reference frames : 4 frames
Codec ID : avc1
Codec ID/Info : Advanced Video Coding
Duration : 2 h 21 min
Bit rate : 1 500 kb/s
Width : 1 920 pixels
Height : 800 pixels
Display aspect ratio : 2.40:1
Frame rate mode : Constant
Frame rate : 23.976 (23976/1000) FPS
Color space : YUV
Chroma subsampling : 4:2:0
Bit depth : 8 bits
Scan type : Progressive
Bits/(Pixel*Frame) : 0.041
Stream size : 1.48 GiB (77%)


Audio
ID : 2
Format : AC-3
Format/Info : Audio Coding 3
Commercial name : Dolby Digital
Codec ID : ac-3
Duration : 2 h 21 min
Bit rate mode : Constant
Bit rate : 448 kb/s
Channel(s) : 6 channels
Channel layout : L R C LFE Ls Rs
Sampling rate : 48.0 kHz
Frame rate : 31.250 FPS (1536 SPF)
Compression mode : Lossy
Stream size : 455 MiB (23%)
Language : English
Service kind : Complete Main
Default : Yes
Alternate group : 1






********************************************************


Files:

Star.Wars.The.Rise.of.Skywalker.2019.1080p.AMZN.WEB-Rip.DDP5.1.LLG
  • SAMPLE.ts (10.2 MB)
  • Star.Wars.The.Rise.of.Skywalker.2019.1080p.AMZN.WEB-Rip.DDP5.1.LLG.mp4 (1.9 GB)

There are currently no comments. Feel free to leave one :)

Code:

  • udp://tracker.openbittorrent.com:80/announce
  • udp://tracker.opentrackr.org:1337/announce