Star Wars The Rise of Skywalker (2019) (1080p AMZN WEB-DL x265 HEVC 10bit AAC 5.1 Q22 Joy) [UTR]

  • CategoryMovies
  • TypeHEVC/x265
  • LanguageEnglish
  • Total size3.7 GB
  • Uploaded ByUTRCorp
  • Downloads2335
  • Last checkedMar. 30th '20
  • Date uploadedMar. 30th '20
  • Seeders 36
  • Leechers6

Star Wars: The Rise of Skywalker

Action Adventure Science Fiction

The surviving Resistance faces the First Order once again as the journey of Rey, Finn and Poe Dameron continues. With the power and knowledge of generations behind them, the final battle begins.

Infohash : EEABBDFB097CC7E0568BFED814A12AB8AFB7AA6C


Media Information

Code:

General
Format : Matroska
Format version : Version 4 / Version 2
File size : 3.75 GiB
Duration : 2 h 21 min
Overall bit rate : 3 784 kb/s
Encoded date : UTC 2020-03-14 18:07:21
Writing application : mkvmerge v40.0.0 ('Old Town Road + Pony') 64-bit
Writing library : libebml v1.3.9 + libmatroska v1.5.2
Cover : Yes
Attachments : cover.jpg
Writing frontend : StaxRip v2.0.2.0, a JoyBell Encode

Video
ID : 1
Format : HEVC
Format/Info : High Efficiency Video Coding
Format profile : Main [email protected]@Main
Codec ID : V_MPEGH/ISO/HEVC
Duration : 2 h 21 min
Bit rate : 3 449 kb/s
Width : 1 920 pixels
Height : 800 pixels
Display aspect ratio : 2.40:1
Frame rate mode : Constant
Frame rate : 23.976 (24000/1001) FPS
Color space : YUV
Chroma subsampling : 4:2:0
Bit depth : 10 bits
Bits/(Pixel*Frame) : 0.094
Stream size : 3.42 GiB (91%)
Writing library : x265 3.2+9-971180b100f8:[Windows][MSVC 1923][64 bit] 10bit
Encoding settings : cpuid=1111039 / frame-threads=3 / numa-pools=12 / wpp / no-pmode / no-pme / no-psnr / ssim / log-level=2 / input-csp=1 / input-res=1920x800 / interlace=0 / total-frames=204072 / level-idc=0 / high-tier=1 / uhd-bd=0 / ref=4 / no-allow-non-conformance / no-repeat-headers / annexb / no-aud / no-hrd / info / hash=0 / no-temporal-layers / open-gop / min-keyint=23 / keyint=250 / gop-lookahead=0 / bframes=8 / b-adapt=2 / b-pyramid / bframe-bias=20 / rc-lookahead=80 / lookahead-slices=4 / scenecut=40 / radl=0 / no-splice / no-intra-refresh / ctu=64 / min-cu-size=8 / rect / no-amp / max-tu-size=32 / tu-inter-depth=1 / tu-intra-depth=1 / limit-tu=0 / rdoq-level=2 / dynamic-rd=0.00 / ssim-rd / signhide / no-tskip / nr-intra=0 / nr-inter=0 / constrained-intra / strong-intra-smoothing / max-merge=5 / limit-refs=3 / limit-modes / me=3 / subme=5 / merange=57 / temporal-mvp / no-frame-dup / no-hme / weightp / no-weightb / no-analyze-src-pics / deblock=-2:-2 / sao / no-sao-non-deblock / rd=4 / selective-sao=4 / early-skip / rskip / no-fast-intra / no-tskip-fast / no-cu-lossless / no-b-intra / no-splitrd-skip / rdpenalty=0 / psy-rd=2.50 / psy-rdoq=1.50 / no-rd-refine / no-lossless / cbqpoffs=0 / crqpoffs=0 / rc=crf / crf=21.5 / qcomp=0.60 / qpstep=4 / stats-write=0 / stats-read=0 / ipratio=1.40 / pbratio=1.30 / aq-mode=3 / aq-strength=0.40 / cutree / zone-count=0 / no-strict-cbr / qg-size=32 / no-rc-grain / qpmax=69 / qpmin=0 / no-const-vbv / sar=0 / overscan=0 / videoformat=5 / range=0 / colorprim=1 / transfer=1 / colormatrix=1 / chromaloc=0 / display-window=0 / cll=0,0 / min-luma=0 / max-luma=1023 / log2-max-poc-lsb=8 / vui-timing-info / vui-hrd-info / slices=1 / no-opt-qp-pps / no-opt-ref-list-length-pps / no-multi-pass-opt-rps / scenecut-bias=0.05 / no-opt-cu-delta-qp / no-aq-motion / no-hdr / no-hdr-opt / no-dhdr10-opt / no-idr-recovery-sei / analysis-reuse-level=5 / scale-factor=0 / refine-intra=0 / refine-inter=0 / refine-mv=1 / refine-ctu-distortion=0 / no-limit-sao / ctu-info=0 / no-lowpass-dct / refine-analysis-type=0 / copy-pic=1 / max-ausize-factor=1.0 / no-dynamic-refine / no-single-sei / no-hevc-aq / no-svt / no-field / qp-adaptation-range=1.00
Default : Yes
Forced : No
Color range : Limited
Color primaries : BT.709
Transfer characteristics : BT.709
Matrix coefficients : BT.709

Audio
ID : 2
Format : AAC
Format/Info : Advanced Audio Codec
Format profile : LC
Codec ID : A_AAC
Duration : 2 h 21 min
Bit rate : 332 kb/s
Channel(s) : 6 channels
Channel positions : Front: L C R, Side: L R, LFE
Sampling rate : 48.0 kHz
Frame rate : 46.875 FPS (1024 spf)
Compression mode : Lossy
Delay relative to video : 9 ms
Stream size : 337 MiB (9%)
Language : English
Default : No
Forced : No

Subtitle #1
ID : 3
Format : UTF-8
Codec ID : S_TEXT/UTF8
Codec ID/Info : UTF-8 Plain Text
Duration : 2 h 8 min
Bit rate : 40 b/s
Count of elements : 1530
Stream size : 38.0 KiB (0%)
Language : English
Default : No
Forced : No

Subtitle #2
ID : 4
Format : UTF-8
Codec ID : S_TEXT/UTF8
Codec ID/Info : UTF-8 Plain Text
Duration : 2 h 11 min
Bit rate : 48 b/s
Count of elements : 1895
Stream size : 47.1 KiB (0%)
Language : English
Default : No
Forced : No

Subtitle #3
ID : 5
Format : UTF-8
Codec ID : S_TEXT/UTF8
Codec ID/Info : UTF-8 Plain Text
Duration : 2 h 13 min
Bit rate : 61 b/s
Count of elements : 1496
Stream size : 59.9 KiB (0%)
Language : Arabic
Default : No
Forced : No

Subtitle #4
ID : 6
Format : UTF-8
Codec ID : S_TEXT/UTF8
Codec ID/Info : UTF-8 Plain Text
Duration : 2 h 12 min
Bit rate : 69 b/s
Count of elements : 1487
Stream size : 67.9 KiB (0%)
Language : Persian
Default : No
Forced : No

Subtitle #5
ID : 7
Format : UTF-8
Codec ID : S_TEXT/UTF8
Codec ID/Info : UTF-8 Plain Text
Duration : 2 h 17 min
Bit rate : 43 b/s
Count of elements : 1462
Stream size : 43.9 KiB (0%)
Language : French
Default : No
Forced : No

Subtitle #6
ID : 8
Format : UTF-8
Codec ID : S_TEXT/UTF8
Codec ID/Info : UTF-8 Plain Text
Duration : 2 h 11 min
Bit rate : 70 b/s
Count of elements : 1106
Stream size : 68.3 KiB (0%)
Language : Greek
Default : No
Forced : No

Subtitle #7
ID : 9
Format : UTF-8
Codec ID : S_TEXT/UTF8
Codec ID/Info : UTF-8 Plain Text
Duration : 2 h 21 min
Bit rate : 40 b/s
Count of elements : 1507
Stream size : 42.0 KiB (0%)
Language : Indonesian
Default : No
Forced : No

Subtitle #8
ID : 10
Format : UTF-8
Codec ID : S_TEXT/UTF8
Codec ID/Info : UTF-8 Plain Text
Duration : 2 h 12 min
Bit rate : 38 b/s
Count of elements : 1109
Stream size : 37.1 KiB (0%)
Language : Romanian
Default : No
Forced : No

Subtitle #9
ID : 11
Format : UTF-8
Codec ID : S_TEXT/UTF8
Codec ID/Info : UTF-8 Plain Text
Duration : 2 h 12 min
Bit rate : 42 b/s
Count of elements : 1452
Stream size : 41.0 KiB (0%)
Language : Spanish
Default : No
Forced : No

Menu
00:00:00.000 : en:Studio Logo
00:00:08.000 : en:Prologue
00:01:44.000 : en:Kylo's search across the galaxy
00:06:42.000 : en:Retrieving a secret message
00:10:03.000 : en:Rey continues her training
00:13:40.000 : en:Time for a new mission
00:19:24.000 : en:Kylo prepares his officers
00:21:23.000 : en:The desert of Pasana
00:25:10.000 : en:Meeting an old ally
00:27:14.000 : en:Racing through the desert
00:30:41.000 : en:Optimism
00:31:04.000 : en:Exploring old Sith tunnels
00:35:48.000 : en:Tragedy in the desert
00:41:37.000 : en:A new plan
00:45:28.000 : en:A trip to Kjimi
00:50:37.000 : en:The location of the last Sith Wayfinder
00:55:42.000 : en:Rescuing Chewie
00:58:48.000 : en:The truth about Rey's parents
01:02:18.000 : en:A spy in the First Order
01:06:22.000 : en:The search for Exegol continues
01:13:30.000 : en:The last Sith Wayfinder
01:17:55.000 : en:Leia's final mission
01:24:30.000 : en:Kylo Ren vs. Ben Solo
01:27:01.000 : en:The Final Order Begins
01:30:22.000 : en:Some things are stronger than blood
01:35:00.000 : en:A last stand for the galaxy
01:38:47.000 : en:The battle begins
01:43:02.000 : en:Palpatine welcomes Rey
01:45:27.000 : en:Attacking the navigation tower
01:47:01.000 : en:The last hope
01:53:27.000 : en:Stronger together
01:55:30.000 : en:The Force will be with you, always
02:00:13.000 : en:A rescue mission
02:01:37.000 : en:The true meaning of sacrifice
02:06:35.000 : en:Celebration
02:09:42.000 : en:A final resting place
02:12:25.000 : en:End Credits



Source Information

Code:

Release: Star.Wars.The.Rise.of.Skywalker.2019.1080p.AMZN.WEB-DL.DDP5.1.H.264-TEPES.mkv (9.94 GBs)

Code:


Note From UTR
Whilst we are happy for our releases to be re-posted on a platform we aren't on, please do so in an 'as-is' format. We ask that you do not create a new torrent, include all descriptions you see above including the UTR logo, tags, notes and screenshots. If you'd like to become a permanent poster on a website we don't post to, feel free to get in contact with a UTR member.
If possible please donate for seedboxes.
BTC - 1QA5fum5AyXvWzdVCkQzUNvw3Ef15fHRaR
Monero - 8AuksPSzY7fen3HHT1a2342PgVy4J93MKfXG3AAcayV76miTyJ3sNfn38srwrpLirGfeR5DwhTL8GW8pdQgT7bZcJ25ynMx
Dash - Xh4mNs6uwZdpCEX2HSEVwGvPD7yKxZ1Ccd
Ethereum - 0x51c06c94e74c16735a7a6e841ad29fc90a84eb1f




Files:

  • Star Wars The Rise of Skywalker (2019) [1080p x265 q22 FS80 Joy].mkv (3.7 GB)

Code:

  • udp://tracker.opentrackr.org:1337/announce
  • udp://tracker.coppersurfer.tk:6969/announce
  • udp://9.rarbg.com:2710/announce
  • udp://9.rarbg.to:2710/announce
  • udp://tracker.torrent.eu.org:451/announce
  • udp://exodus.desync.com:6969/announce
  • udp://tracker.tiny-vps.com:6969/announce
  • udp://open.demonii.si:1337/announce
  • udp://tracker.internetwarriors.net:1337/announce