Star.Wars.The.Rise.of.Skywalker.2019.720p.AMZN.WEB-Rip.DDP5.1.LLG

  • Category Movies
  • Type HD
  • Language English
  • Total size 1.3 GB
  • Uploaded By LifeLongg
  • Downloads 133
  • Last checked 1 week ago
  • Date uploaded 2 weeks ago
  • Seeders 5
  • Leechers 2

Star Wars: The Rise of Skywalker

ActionAdventureScience Fiction

The surviving Resistance faces the First Order once again as the journey of Rey, Finn and Poe Dameron continues. With the power and knowledge of generations behind them, the final battle begins.

Infohash : 49A5430A26A9937774F59DBBEECB768DF69A735F

Quote:




******************************Thumbnail:**********************



******************************Screenshots:********************

screenshot 1

screenshot 2

screenshot 3

screenshot 4

screenshot 5

screenshot 6

screenshot 7

screenshot 8

screenshot 9

******************************Poster:**********************




******************************************************

Star.Wars.The.Rise.of.Skywalker.2019.720p.AMZN.WEB-Rip.DDP5.1.LLG.mp4
Format : MPEG-4
Format profile : Base Media
Codec ID : isom (isom/iso2/avc1/mp41)
File size : 1.34 GiB
Duration : 2 h 21 min
Overall bit rate : 1 351 kb/s
Writing application : Lavf57.83.100

Video
ID : 1
Format : AVC
Format/Info : Advanced Video Codec
Format profile : [email protected]
Format settings : CABAC / 4 Ref Frames
Format settings, CABAC : Yes
Format settings, Reference frames : 4 frames
Codec ID : avc1
Codec ID/Info : Advanced Video Coding
Duration : 2 h 21 min
Bit rate : 900 kb/s
Width : 1 280 pixels
Height : 532 pixels
Display aspect ratio : 2.40:1
Original display aspect ratio : 2.40:1
Frame rate mode : Constant
Frame rate : 23.976 (23976/1000) FPS
Color space : YUV
Chroma subsampling : 4:2:0
Bit depth : 8 bits
Scan type : Progressive
Bits/(Pixel*Frame) : 0.055
Stream size : 912 MiB (66%)
Writing library : x264 core 148 r2643 5c65704


Audio
ID : 2
Format : AC-3
Format/Info : Audio Coding 3
Commercial name : Dolby Digital
Codec ID : ac-3
Duration : 2 h 21 min
Bit rate mode : Constant
Bit rate : 448 kb/s
Channel(s) : 6 channels
Channel layout : L R C LFE Ls Rs
Sampling rate : 48.0 kHz
Frame rate : 31.250 FPS (1536 SPF)
Compression mode : Lossy
Stream size : 455 MiB (33%)
Language : English
Service kind : Complete Main
Default : Yes






********************************************************


Files:

Star.Wars.The.Rise.of.Skywalker.2019.720p.AMZN.WEB-Rip.DDP5.1.LLG
  • SAMPLE.ts (10.4 MB)
  • Star.Wars.The.Rise.of.Skywalker.2019.720p.AMZN.WEB-Rip.DDP5.1.LLG.mp4 (1.3 GB)

There are currently no comments. Feel free to leave one :)

Code:

  • udp://tracker.openbittorrent.com:80/announce
  • udp://tracker.opentrackr.org:1337/announce