Star Wars - The Rise of Skywalker (2019) (1080p AMZN Webrip x265 ...

  • Category Movies
  • Type HEVC/x265
  • Language English
  • Total size 7.2 GB
  • Uploaded By Goki
  • Downloads 997
  • Last checked 2 weeks ago
  • Date uploaded 2 weeks ago
  • Seeders 39
  • Leechers 16

Star Wars: The Rise of Skywalker

ActionAdventureScience Fiction

The surviving Resistance faces the First Order once again as the journey of Rey, Finn and Poe Dameron continues. With the power and knowledge of generations behind them, the final battle begins.

Infohash : 6557B3AE24708F8CC69C780F5A70BF1B1034A716






Star Wars: The Rise Of Skywalker (2019) IMDB












Media Information



Unique ID : 270259075065726953424508879283328003436 (0xCB5201299BD2B59ED912B12651922D6C)
Complete name : Star Wars - The Rise of Skywalker (2019) (1080p AMZN Webrip x265 10bit EAC3 5.1 - Goki)[TAoE].mkv
Format : Matroska
Format version : Version 4
File size : 7.24 GiB
Duration : 2 h 21 min
Overall bit rate : 7 306 kb/s
Movie name : Star Wars - The Rise of Skywalker (2019) (1080p AMZN Webrip x265 10bit EAC3 5.1 - Goki)[TAoE].mkv
Encoded date : UTC 2020-03-14 21:56:39
Writing application : mkvmerge v28.2.0 ('The Awakening') 64-bit
Writing library : libebml v1.3.6 + libmatroska v1.4.9

Video
ID : 1
Format : HEVC
Format/Info : High Efficiency Video Coding
Format profile : Main [email protected]@Main
Codec ID : V_MPEGH/ISO/HEVC
Duration : 2 h 21 min
Bit rate : 6 664 kb/s
Width : 1 920 pixels
Height : 800 pixels
Display aspect ratio : 2.40:1
Frame rate mode : Constant
Frame rate : 23.976 (24000/1001) FPS
Color space : YUV
Chroma subsampling : 4:2:0
Bit depth : 10 bits
Bits/(Pixel*Frame) : 0.181
Stream size : 6.60 GiB (91%)
Writing library : x265 3.2+35-acc5d16999e2:[Windows][GCC 9.2.1][64 bit] 10bit
Encoding settings : cpuid=1111039 / frame-threads=2 / numa-pools=6 / wpp / no-pmode / no-pme / no-psnr / no-ssim / log-level=2 / input-csp=1 / input-res=1920x800 / interlace=0 / total-frames=0 / level-idc=0 / high-tier=1 / uhd-bd=0 / ref=4 / no-allow-non-conformance / no-repeat-headers / annexb / no-aud / no-hrd / info / hash=0 / no-temporal-layers / open-gop / min-keyint=23 / keyint=250 / gop-lookahead=0 / bframes=8 / b-adapt=2 / b-pyramid / bframe-bias=0 / rc-lookahead=80 / lookahead-slices=4 / scenecut=40 / hist-scenecut=0 / radl=0 / no-splice / no-intra-refresh / ctu=64 / min-cu-size=8 / no-rect / no-amp / max-tu-size=32 / tu-inter-depth=1 / tu-intra-depth=1 / limit-tu=0 / rdoq-level=2 / dynamic-rd=0.00 / no-ssim-rd / signhide / no-tskip / nr-intra=0 / nr-inter=0 / no-constrained-intra / no-strong-intra-smoothing / max-merge=3 / limit-refs=3 / limit-modes / me=3 / subme=5 / merange=57 / temporal-mvp / no-frame-dup / no-hme / weightp / no-weightb / no-analyze-src-pics / deblock=0:0 / sao / no-sao-non-deblock / rd=4 / selective-sao=4 / no-early-skip / rskip / no-fast-intra / no-tskip-fast / no-cu-lossless / no-b-intra / no-splitrd-skip / rdpenalty=0 / psy-rd=1.30 / psy-rdoq=2.00 / no-rd-refine / no-lossless / cbqpoffs=0 / crqpoffs=0 / rc=crf / crf=19.5 / qcomp=0.60 / qpstep=4 / stats-write=0 / stats-read=0 / ipratio=1.40 / pbratio=1.30 / aq-mode=4 / aq-strength=1.10 / cutree / zone-count=0 / no-strict-cbr / qg-size=32 / no-rc-grain / qpmax=69 / qpmin=0 / no-const-vbv / sar=1 / overscan=0 / videoformat=5 / range=0 / colorprim=2 / transfer=2 / colormatrix=2 / chromaloc=0 / display-window=0 / cll=0,0 / min-luma=0 / max-luma=1023 / log2-max-poc-lsb=8 / vui-timing-info / vui-hrd-info / slices=1 / no-opt-qp-pps / no-opt-ref-list-length-pps / no-multi-pass-opt-rps / scenecut-bias=0.05 / hist-threshold=0.01 / no-opt-cu-delta-qp / no-aq-motion / no-hdr10 / no-hdr10-opt / no-dhdr10-opt / no-idr-recovery-sei / analysis-reuse-level=0 / analysis-save-reuse-level=0 / analysis-load-reuse-level=0 / scale-factor=0 / refine-intra=0 / refine-inter=0 / refine-mv=1 / refine-ctu-distortion=0 / no-limit-sao / ctu-info=0 / no-lowpass-dct / refine-analysis-type=0 / copy-pic=1 / max-ausize-factor=1.0 / no-dynamic-refine / no-single-sei / no-hevc-aq / no-svt / no-field / qp-adaptation-range=1.00 / no-scenecut-aware-qpconformance-window-offsets / right=0 / bottom=0
Default : Yes
Forced : No
Color range : Limited

Audio
ID : 2
Format : E-AC-3
Format/Info : Enhanced AC-3
Commercial name : Dolby Digital Plus
Codec ID : A_EAC3
Duration : 2 h 21 min
Bit rate mode : Constant
Bit rate : 640 kb/s
Channel(s) : 6 channels
Channel layout : L R C LFE Ls Rs
Sampling rate : 48.0 kHz
Frame rate : 31.250 FPS (1536 SPF)
Compression mode : Lossy
Stream size : 649 MiB (9%)
Language : English
Service kind : Complete Main
Default : Yes
Forced : No

Text #1
ID : 3
Format : UTF-8
Codec ID : S_TEXT/UTF8
Codec ID/Info : UTF-8 Plain Text
Duration : 2 h 8 min
Bit rate : 40 b/s
Count of elements : 1530
Stream size : 38.0 KiB (0%)
Language : English
Default : No
Forced : No

Text #2
ID : 4
Format : UTF-8
Codec ID : S_TEXT/UTF8
Codec ID/Info : UTF-8 Plain Text
Duration : 2 h 11 min
Bit rate : 48 b/s
Count of elements : 1895
Stream size : 47.1 KiB (0%)
Title : SDH
Language : English
Default : No
Forced : No

Menu
00:00:00.000 : :Studio Logo
00:00:08.000 : :Prologue
00:01:44.000 : :Kylo's search across the galaxy
00:06:42.000 : :Retrieving a secret message
00:10:03.000 : :Rey continues her training
00:13:40.000 : :Time for a new mission
00:19:24.000 : :Kylo prepares his officers
00:21:23.000 : :The desert of Pasana
00:25:10.000 : :Meeting an old ally
00:27:14.000 : :Racing through the desert
00:30:41.000 : :Optimism
00:31:04.000 : :Exploring old Sith tunnels
00:35:48.000 : :Tragedy in the desert
00:41:37.000 : :A new plan
00:45:28.000 : :A trip to Kjimi
00:50:37.000 : :The location of the last Sith Wayfinder
00:55:42.000 : :Rescuing Chewie
00:58:48.000 : :The truth about Rey's parents
01:02:18.000 : :A spy in the First Order
01:06:22.000 : :The search for Exegol continues
01:13:30.000 : :The last Sith Wayfinder
01:17:55.000 : :Leia's final mission
01:24:30.000 : :Kylo Ren vs. Ben Solo
01:27:01.000 : :The Final Order Begins
01:30:22.000 : :Some things are stronger than blood
01:35:00.000 : :A last stand for the galaxy
01:38:47.000 : :The battle begins
01:43:02.000 : :Palpatine welcomes Rey
01:45:27.000 : :Attacking the navigation tower
01:47:01.000 : :The last hope
01:53:27.000 : :Stronger together
01:55:30.000 : :The Force will be with you, always
02:00:13.000 : :A rescue mission
02:01:37.000 : :The true meaning of sacrifice
02:06:35.000 : :Celebration
02:09:42.000 : :A final resting place
02:12:25.000 : :End Credits

Source


1080p AMZN WEB-DL TEPES
189714793610063102183368033501548801601 (0x8EB9BD7D230737A8F020AEB8187E6E41)

Hello everyone,
We are TAoE, a small team of passionate encoders who love encoding. We try our best to provide you with high quality releases.
If you would like to join the team just drop us a comment or send us a message.




.........................................................................................................................................


Files:

Star Wars - The Rise of Skywalker (2019) (1080p AMZN Webrip x265 10bit EAC3 5.1 - Goki)[TAoE]
  • Star Wars - The Rise of Skywalker (2019) (1080p AMZN Webrip x265 10bit EAC3 5.1 - Goki)[TAoE].mkv (7.2 GB)
  • Star Wars - The Rise of Skywalker (2019) (1080p AMZN Webrip x265 10bit EAC3 5.1 - Goki)[TAoE].nfo (34.5 KB)
  • Star Wars - The Rise of Skywalker (2019) (1080p AMZN Webrip x265 10bit EAC3 5.1 - Goki)[TAoE]-banner.jpg (59.9 KB)
  • Star Wars - The Rise of Skywalker (2019) (1080p AMZN Webrip x265 10bit EAC3 5.1 - Goki)[TAoE]-clearart.png (414.4 KB)
  • Star Wars - The Rise of Skywalker (2019) (1080p AMZN Webrip x265 10bit EAC3 5.1 - Goki)[TAoE]-clearlogo.png (51.8 KB)
  • Star Wars - The Rise of Skywalker (2019) (1080p AMZN Webrip x265 10bit EAC3 5.1 - Goki)[TAoE]-disc.png (1.3 MB)
  • Star Wars - The Rise of Skywalker (2019) (1080p AMZN Webrip x265 10bit EAC3 5.1 - Goki)[TAoE]-fanart.jpg (629.9 KB)
  • Star Wars - The Rise of Skywalker (2019) (1080p AMZN Webrip x265 10bit EAC3 5.1 - Goki)[TAoE]-keyart.jpg (1.0 MB)
  • Star Wars - The Rise of Skywalker (2019) (1080p AMZN Webrip x265 10bit EAC3 5.1 - Goki)[TAoE]-logo.png (51.8 KB)
  • Star Wars - The Rise of Skywalker (2019) (1080p AMZN Webrip x265 10bit EAC3 5.1 - Goki)[TAoE]-poster.jpg (269.7 KB)
  • Star Wars - The Rise of Skywalker (2019) (1080p AMZN Webrip x265 10bit EAC3 5.1 - Goki)[TAoE]-thumb.jpg (89.7 KB)

Comments

Code:

  • udp://tracker.coppersurfer.tk:6969/announce
  • udp://tracker.opentrackr.org:1337/announce
  • udp://tracker.torrent.eu.org:451/announce
  • udp://tracker.internetwarriors.net:1337/announce
  • http://tracker.opentrackr.org:1337/announce
  • udp://denis.stalker.upeer.me:6969/announce
  • udp://tracker.coppersurfer.tk:6969
  • udp://tracker.internetwarriors.net:1337
  • udp://9.rarbg.me:2720/announce
  • udp://explodie.org:6969/announce
  • udp://tracker.cyberia.is:6969/announce
  • udp://thetracker.org/announce
  • udp://open.demonii.si:1337/announce