Attack on Titan (2017) S02 [1080p x265 HEVC 10bit BluRay Dual Aud...

  • Category Anime
  • Type Dual Audio
  • Language English
  • Total size 13.6 GB
  • Uploaded By Prof
  • Downloads 99
  • Last checked 1 week ago
  • Date uploaded 2 weeks ago
  • Seeders 4
  • Leechers 2

Infohash : 76B9C276F8778D681DF4DBBAD3A2B77B0DB83C07



Shingeki no Kyojin Season 2

Synopsis

For centuries, humanity has been hunted by giant, mysterious predators known as the Titans. Three mighty walls—Wall Maria, Rose, and Sheena—provided peace and protection for humanity for over a hundred years. That peace, however, was shattered when the Colossus Titan and Armored Titan appeared and destroyed the outermost wall, Wall Maria. Forced to retreat behind Wall Rose, humanity waited with bated breath for the Titans to reappear and destroy their safe haven once more.

In Shingeki no Kyojin Season 2, Eren Yeager and others of the 104th Training Corps have just begun to become full members of the Survey Corps. As they ready themselves to face the Titans once again, their preparations are interrupted by the invasion of Wall Rose—but all is not as it seems as more mysteries are unraveled. As the Survey Corps races to save the wall, they uncover more about the invading Titans and the dark secrets of their own members.

[Written by MAL Rewrite]

Alternative Titles

English: Attack on Titan Season 2
Japanese: 進撃の巨人 Season2

Information


Type: TV
Episodes: 12
Status: Finished Airing
Aired: Apr 1, 2017 to Jun 17, 2017
Premiered: Spring 2017
Broadcast: Saturdays at 22:00 (JST)
Producers: Production I.G, Dentsu, Mainichi Broadcasting System, Pony Canyon, Kodansha, Techno Sound, Pony Canyon Enterprise
Licensors: Funimation
Studios: Wit Studio
Source: Manga
Genres: Action, Drama, Fantasy, Military, Mystery, Shounen, Super Power
Duration: 24 min. per ep.
Rating: R - 17+ (violence & profanity)







Format : Matroska
Format version : Version 4
File size : 1.18 GiB
Duration : 24 min 12 s
Overall bit rate : 6 985 kb/s
Movie name : AttackOnTitan Season2 D1
Encoded date : UTC 2020-03-14 17:18:28
Writing application : mkvmerge v41.0.0 ('Smarra') 64-bit
Writing library : libebml v1.3.9 + libmatroska v1.5.2
Attachments : Clearface SSi Bold.ttf / FeENrm28C.otf / KeplerStd-Regular.otf / Señor Domingo.ttf / Volkhov-Bold.ttf / Volkhov-BoldItalic.ttf / Volkhov-Regular.ttf / AGaramondPro-Regular.otf / AmazObitaemOstrovCrazy!.ttf

Video
ID : 1
Format : HEVC
Format/Info : High Efficiency Video Coding
Format profile : Main [email protected]@Main
Codec ID : V_MPEGH/ISO/HEVC
Duration : 24 min 12 s
Bit rate : 5 522 kb/s
Width : 1 920 pixels
Height : 1 080 pixels
Display aspect ratio : 16:9
Frame rate mode : Constant
Frame rate : 23.976 (24000/1001) FPS
Color space : YUV
Chroma subsampling : 4:2:0
Bit depth : 10 bits
Bits/(Pixel*Frame) : 0.111
Stream size : 956 MiB (79%)
Writing library : x265 3.3+1-g554c887ac:[Windows][MSVC 1924][64 bit] 10bit
Encoding settings : cpuid=1111039 / frame-threads=3 / numa-pools=12 / wpp / no-pmode / no-pme / no-psnr / no-ssim / log-level=2 / input-csp=1 / input-res=1920x1080 / interlace=0 / total-frames=34816 / level-idc=0 / high-tier=1 / uhd-bd=0 / ref=4 / no-allow-non-conformance / no-repeat-headers / annexb / no-aud / no-hrd / info / hash=0 / no-temporal-layers / open-gop / min-keyint=23 / keyint=250 / gop-lookahead=0 / bframes=8 / b-adapt=2 / b-pyramid / bframe-bias=0 / rc-lookahead=80 / lookahead-slices=6 / scenecut=40 / hist-scenecut=0 / radl=0 / no-splice / no-intra-refresh / ctu=64 / min-cu-size=8 / rect / no-amp / max-tu-size=32 / tu-inter-depth=1 / tu-intra-depth=1 / limit-tu=0 / rdoq-level=2 / dynamic-rd=0.00 / no-ssim-rd / signhide / no-tskip / nr-intra=0 / nr-inter=0 / no-constrained-intra / strong-intra-smoothing / max-merge=3 / limit-refs=3 / limit-modes / me=3 / subme=3 / merange=57 / temporal-mvp / no-frame-dup / no-hme / weightp / no-weightb / no-analyze-src-pics / deblock=0:0 / sao / no-sao-non-deblock / rd=4 / selective-sao=4 / no-early-skip / rskip / no-fast-intra / no-tskip-fast / no-cu-lossless / no-b-intra / no-splitrd-skip / rdpenalty=0 / psy-rd=2.00 / psy-rdoq=1.00 / no-rd-refine / no-lossless / cbqpoffs=0 / crqpoffs=0 / rc=crf / crf=19.0 / qcomp=0.60 / qpstep=4 / stats-write=0 / stats-read=0 / ipratio=1.40 / pbratio=1.30 / aq-mode=3 / aq-strength=0.80 / cutree / zone-count=0 / no-strict-cbr / qg-size=32 / no-rc-grain / qpmax=69 / qpmin=0 / no-const-vbv / sar=0 / overscan=0 / videoformat=5 / range=0 / colorprim=2 / transfer=2 / colormatrix=2 / chromaloc=0 / display-window=0 / cll=0,0 / min-luma=0 / max-luma=1023 / log2-max-poc-lsb=8 / vui-timing-info / vui-hrd-info / slices=1 / no-opt-qp-pps / no-opt-ref-list-length-pps / no-multi-pass-opt-rps / scenecut-bias=0.05 / hist-threshold=0.01 / no-opt-cu-delta-qp / no-aq-motion / no-hdr10 / no-hdr10-opt / no-dhdr10-opt / no-idr-recovery-sei / analysis-reuse-level=0 / analysis-save-reuse-level=0 / analysis-load-reuse-level=0 / scale-factor=0 / refine-intra=0 / refine-inter=0 / refine-mv=1 / refine-ctu-distortion=0 / no-limit-sao / ctu-info=0 / no-lowpass-dct / refine-analysis-type=0 / copy-pic=1 / max-ausize-factor=1.0 / no-dynamic-refine / no-single-sei / no-hevc-aq / no-svt / no-field / qp-adaptation-range=1.00 / no-scenecut-aware-qpconformance-window-offsets / right=0 / bottom=0
Default : Yes
Forced : No

Audio #1
ID : 2
Format : AAC LC
Format/Info : Advanced Audio Codec Low Complexity
Codec ID : A_AAC-2
Duration : 24 min 12 s
Bit rate : 848 kb/s
Channel(s) : 6 channels
Channel layout : C L R Ls Rs LFE
Sampling rate : 48.0 kHz
Frame rate : 46.875 FPS (1024 SPF)
Compression mode : Lossy
Delay relative to video : 9 ms
Stream size : 147 MiB (12%)
Language : English
Default : Yes
Forced : No

Audio #2
ID : 3
Format : AAC LC
Format/Info : Advanced Audio Codec Low Complexity
Codec ID : A_AAC-2
Duration : 24 min 12 s
Bit rate : 404 kb/s
Channel(s) : 2 channels
Channel layout : L R
Sampling rate : 48.0 kHz
Frame rate : 46.875 FPS (1024 SPF)
Compression mode : Lossy
Delay relative to video : 9 ms
Stream size : 69.9 MiB (6%)
Language : Japanese
Default : No
Forced : No

Text #1
ID : 4
Format : ASS
Codec ID : S_TEXT/ASS
Codec ID/Info : Advanced Sub Station Alpha
Duration : 21 min 21 s
Bit rate : 98.9 kb/s
Count of elements : 63623
Compression mode : Lossless
Stream size : 15.1 MiB (1%)
Title : English [Signs-Songs]
Language : English
Default : Yes
Forced : No

Text #2
ID : 5
Format : ASS
Codec ID : S_TEXT/ASS
Codec ID/Info : Advanced Sub Station Alpha
Duration : 23 min 56 s
Bit rate : 88.3 kb/s
Count of elements : 63874
Compression mode : Lossless
Stream size : 15.1 MiB (1%)
Title : English [Full]
Language : English
Default : No
Forced : No

Menu
00:00:00.000 : :Prologue
00:02:42.287 : :Opening
00:04:12.043 : :Part A
00:14:42.757 : :Part B
00:22:10.204 : :Ending
00:23:40.294 : :Preview

Source:




Coming soon:

4k UHD

Doctor Strange
Dunkirk
Ex Machina
Fantastic Beasts and Where to Find Them

1080p

American Sniper
Anna Karenina
The Silence of the Lambs
Whiplash
Pirates of the Caribbean: On Stranger Tides
Man of Steel
Teenage Mutant Ninja Turtles
The Prestige
Pirates of the Caribbean: Dead Men Tell No Tales
This is the End

TV

Last Week Tonight (ongoing)
Workaholics S03

Anime

Attack on Titan S03

Files:

Attack on Titan (2017) S02 [1080p x265 HEVC 10bit BluRay Dual Audio AAC] [Prof]
  • [Prof] S02E05 - Historia.mkv (1.4 GB)
  • [Prof] S02E02 - I`m Home.mkv (1.1 GB)
  • [Prof] S02E03 - Southwestward.mkv (1.0 GB)
  • [Prof] S02E04 - Soldier.mkv (1,011.6 MB)
  • [Prof] S02E01 - Beast Titan.mkv (1.2 GB)
  • [Prof] S02E06 - Warrior.mkv (1.0 GB)
  • [Prof] S02E07 - Close Combat.mkv (1.2 GB)
  • [Prof] S02E08 - The Hunters.mkv (1.1 GB)
  • [Prof] S02E09 - Opening.mkv (1.1 GB)
  • [Prof] S02E10 - Children.mkv (1.2 GB)
  • [Prof] S02E11 - Charge.mkv (1.3 GB)
  • [Prof] S02E12 - Scream.mkv (1.1 GB)

There are currently no comments. Feel free to leave one :)

Code:

  • udp://tracker.coppersurfer.tk:6969/announce
  • udp://tracker.torrent.eu.org:451/announce
  • udp://tracker.tiny-vps.com:6969/announce
  • udp://denis.stalker.upeer.me:6969/announce
  • udp://tracker.cyberia.is:6969/announce
  • udp://open.stealth.si:80/announce
  • http://nyaa.tracker.wf:7777/announce