Bhoot: Part One - The Haunted Ship (2020) 720p WEB-DL x264 Hindi DD5.1 ESub ~dp_yakuza

  • CategoryMovies
  • TypeBollywood
  • LanguageEnglish
  • Total size979.1 MB
  • Uploaded ByHevclovers
  • Downloads9754
  • Last checkedApr. 26th '20
  • Date uploadedApr. 22nd '20
  • Seeders 186
  • Leechers47

Infohash : 04E2CF5690DB6FD7C3A0AF7731A5091FEF12DBF3

Quote:



Bhoot: Part One - The Haunted Ship (2020) 720p WEB-DL x264 Hindi DD5.1 ESub ~dp_yakuza
[MoviezAddiction]

Visit & Support www.MoviezAddiction.pro






Bhoot: Part One - The Haunted Ship (2020) 720p WEB-DL x264 Hindi DD5.1 ESub ~dp_yakuza
[MoviezAddiction]


Take It Or Leave It
Like Our Work Just leave Only 1 Valuable Comment
Keep Visit and Support https://moviezaddiction.pro



Video
ID                                       : 3
Format                                   : AVC
Format/Info                              : Advanced Video Codec
Format profile                           : [email protected]
Format settings                          : CABAC / 4 Ref Frames
Format settings, CABAC                   : Yes
Format settings, Reference frames        : 4 frames
Codec ID                                 : V_MPEG4/ISO/AVC
Duration                                 : 1 h 50 min
Bit rate                                 : 1 050 kb/s
Width                                    : 1 280 pixels
Height                                   : 532 pixels
Display aspect ratio                     : 2.40:1
Frame rate mode                          : Constant
Frame rate                               : 24.000 FPS
Color space                              : YUV
Chroma subsampling                       : 4:2:0
Bit depth                                : 8 bits
Scan type                                : Progressive
Bits/(Pixel*Frame)                       : 0.064
Stream size                              : 828 MiB (85%)
Title                                    : [Www.MoviezAddiction.pro]
Writing library                          : x264 core 157 r2935 545de2f
Encoding settings                        : cabac=1 / ref=3 / deblock=1:0:0 / analyse=0x1:0x111 / me=hex / subme=7 / psy=1 / psy_rd=1.00:0.00 / mixed_ref=1 / me_range=16 / chroma_me=1 / trellis=1 / 8x8dct=0 / cqm=0 / deadzone=21,11 / fast_pskip=1 / chroma_qp_offset=-2 / threads=12 / lookahead_threads=2 / sliced_threads=0 / nr=0 / decimate=1 / interlaced=0 / bluray_compat=0 / constrained_intra=0 / bframes=3 / b_pyramid=2 / b_adapt=1 / b_bias=0 / direct=1 / weightb=1 / open_gop=0 / weightp=2 / keyint=240 / keyint_min=24 / scenecut=40 / intra_refresh=0 / rc_lookahead=40 / rc=2pass / mbtree=1 / bitrate=1050 / ratetol=1.0 / qcomp=0.60 / qpmin=0 / qpmax=69 / qpstep=4 / cplxblur=20.0 / qblur=0.5 / vbv_maxrate=14000 / vbv_bufsize=14000 / nal_hrd=none / filler=0 / ip_ratio=1.40 / aq=1:1.00
Language                                 : Hindi
Default                                  : Yes
Forced                                   : No
Color range                              : Limited
Color primaries                          : BT.709
Transfer characteristics                 : BT.709
Matrix coefficients                      : BT.709

Audio
ID                                       : 2
Format                                   : AAC LC
Format/Info                              : Advanced Audio Codec Low Complexity
Codec ID                                 : A_AAC-2
Duration                                 : 1 h 50 min
Bit rate                                 : 192 kb/s
Channel(s)                               : 6 channels
Channel layout                           : C L R Ls Rs LFE
Sampling rate                            : 48.0 kHz
Frame rate                               : 46.875 FPS (1024 SPF)
Compression mode                         : Lossy
Stream size                              : 149 MiB (15%)
Title                                    : [Www.MoviezAddiction.pro]
Language                                 : Hindi
Default                                  : Yes
Forced                                   : Yes

Text
ID                                       : 1
Format                                   : UTF-8
Codec ID                                 : S_TEXT/UTF8
Codec ID/Info                            : UTF-8 Plain Text
Duration                                 : 1 h 38 min
Bit rate                                 : 27 b/s
Count of elements                        : 753
Stream size                              : 19.9 KiB (0%)
Title                                    : [Www.MoviezAddiction.pro]
Language                                 : English
Default                                  : Yes
Forced                                   : No



A couple is trapped on an abandoned ship lying static on a beach.








Files:

  • Bhoot Part One - The Haunted Ship (2020) 720p WEB-DL x264 Hindi DD5.1 ESub [Www.MoviezAddiction.pro].mkv (979.1 MB)

Code:

  • udp://tracker.openbittorrent.com:80/announce
  • udp://tracker.publicbt.com:80/announce
  • udp://tracker.coppersurfer.tk:6969/announce
  • udp://tracker.opentrackr.org:1337/announce
  • udp://tracker.leechers-paradise.org:6969/announce
  • udp://p4p.arenabg.com:1337/announce
  • udp://9.rarbg.to:2710/announce
  • udp://9.rarbg.me:2710/announce
  • udp://exodus.desync.com:6969/announce
  • udp://open.stealth.si:80/announce
  • udp://tracker.sbsub.com:2710/announce
  • udp://retracker.lanta-net.ru:2710/announce